img image001 image001 image001 image001 image001 image001 image001 image001 image001 image001 image001 image001 image001 image001 image001

Planets Sun Sun Sun
Статистика раздачи
Автор: Nickolas3434 | Размер: 298.4 МБ | Добавлен: 15 янв 2015
Раздают: 17    Качают: 2
Скачать торрент
Скачать торрент
Описание торрента

СообщениеДобавлено: 15 янв 2015 

Страна: Япония
Год выпуска: 2015 г.
Жанр: приключения
Тип: TV
Продолжительность: ТВ (>12 эп.), 25 мин.
Режиссер: Омори Такахиро
Описание:
В этом сезоне мы продолжаем наблюдать за нашими любимыми героями, к которым мы так привыкли. Все действие также происходит в том же самом районе, самом опасном в Токио. Это Икебукуро. С событий первого сезона прошло целых полгода. А основной сюжет заключался в следующем.
В этот самый район, Икебукуро, у которого не очень хорошая репутация, как это уже отмечалось выше, приезжает наш главный герой. Зовут этого юнца Микадо Рюгамине. Встретившись со своим другом, который уже привык к жизни в опаснейшем районе, Микадо открывает для себя много всего загадочного в этом месте, полном преступлений. Весь первый сезон мы наблюдали за буднями наших героев, которые никому не покажутся скучными. К различным тайнам и неожиданным сюрпризам нам не привыкать. А как будут развиваться события дальше, и что станет с главными героями, мы узнает после того, как посмотрим этот сезон нашего любимого аниме
Доп. информация:

Релиз GSGroup
Серия состоит из:
#1 Дюрарара!! - ТВ (24 эп. + 2 спэшла), адаптация ранобэ, 2010
#2 Дюрарара!! 2 (сезон первый) - ТВ (>12 эп.), продолжение, 2015
#3 Дюрарара!! 2 (сезон второй) - ТВ, продолжение, 2015
#4 Дюрарара!! 2 (сезон третий) - ТВ, продолжение, 2016
Качество: HDTVRip
Тип релиза: Без хардсаба
Формат видео: AVI
Совместимость с бытовыми плеерами: Да
Видео: XVID, 704х396, 1288 kbps, 23,976 Hz, 8bits
Аудио 1: AC-3, 192kbps, 48,0Hz, 2ch, Язык Русский (в составе контейнера) ; Озвучка: одноголосая женская Persona99
Аудио 2: AC-3, 192kbps, 48,0Hz, 2ch, Язык Японский
Субтитры: внешние srt, ass Язык субтитров русский ; Перевод: Алекс Миф, Проект команды Timecraft
Код:
General
Complete name               : Durarara!!Durarara!!x2 Shou\01_Durarara!!x2 Shou_[Persona99][704x396.XviD].rus.jap.avi
Format                      : AVI
Format/Info                 : Audio Video Interleave
File size                   : 298 MiB
Duration                    : 23mn 59s
Overall bit rate            : 1 738 Kbps
Writing application         : VirtualDubMod 1.5.10.2 (build 2540/release)
Writing library             : VirtualDubMod build 2540/release
Video
ID                          : 0
Format                      : MPEG-4 Visual
Format profile              : Advanced Simple@L5
Format settings, BVOP       : 2
Format settings, QPel       : No
Format settings, GMC        : No warppoints
Format settings, Matrix     : Default (H.263)
Codec ID                    : XVID
Codec ID/Hint               : XviD
Duration                    : 23mn 59s
Bit rate                    : 1 340 Kbps
Width                       : 704 pixels
Height                      : 396 pixels
Display aspect ratio        : 16:9
Frame rate                  : 23.976 fps
Color space                 : YUV
Chroma subsampling          : 4:2:0
Bit depth                   : 8 bits
Scan type                   : Progressive
Compression mode            : Lossy
Bits/(Pixel*Frame)          : 0.200
Stream size                 : 230 MiB (77%)
Writing library             : XviD 1.2.1 (UTC 2008-12-04)
Audio #1
ID                          : 1
Format                      : AC-3
Format/Info                 : Audio Coding 3
Mode extension              : CM (complete main)
Format settings, Endianness : Big
Codec ID                    : 2000
Duration                    : 23mn 59s
Bit rate mode               : Constant
Bit rate                    : 192 Kbps
Channel(s)                  : 2 channels
Channel positions           : Front: L R
Sampling rate               : 48.0 KHz
Bit depth                   : 16 bits
Compression mode            : Lossy
Stream size                 : 33.0 MiB (11%)
Alignment                   : Split accross interleaves
Interleave, duration        : 42 ms (1.00 video frame)
Interleave, preload duratio : 500 ms
Audio #2
ID                          : 2
Format                      : AC-3
Format/Info                 : Audio Coding 3
Mode extension              : CM (complete main)
Format settings, Endianness : Big
Codec ID                    : 2000
Duration                    : 23mn 59s
Bit rate mode               : Constant
Bit rate                    : 192 Kbps
Channel(s)                  : 2 channels
Channel positions           : Front: L R
Sampling rate               : 48.0 KHz
Bit depth                   : 16 bits
Compression mode            : Lossy
Stream size                 : 33.0 MiB (11%)
Alignment                   : Split accross interleaves
Interleave, duration        : 42 ms (1.00 video frame)
Interleave, preload duratio : 500 ms
 
01. A Picture Is Worth a Thousand Words




   Похожие торренты   Торрент   Размер 
В этой теме нет новых непрочитанных сообщений. Дюрарара!! 2 (сезон первый) / Durarara!!x2 Shou [TV] [01-07 из 12] (2015) HDTVRip | Persona99

2 | 2

2.82 ГБ

В этой теме нет новых непрочитанных сообщений. Дюрарара!! 2 (сезон первый) / Durarara!!x2 Shou [TV] [01-02] (2015) HDTVRip 720 | Persona99

2 | 15

842.22 МБ

В этой теме нет новых непрочитанных сообщений. Дюрарара!! 2 / Durarara!!x2 Shou [TV] [01-02 из 12] (2015) HDTVRip | Persona99

2 | 2

589.99 МБ

В этой теме нет новых непрочитанных сообщений. Дюрарара!! 2 / Durarara!!x2 Shou [TV] [01-12] (2015) HDTVRip | Persona99

43 | 11

4.81 ГБ

В этой теме нет новых непрочитанных сообщений. Дюрарара!! 2 (сезон второй) / Durarara!!x2 Ten [TV] [1-4 из 12] (2015) HDTVRip 720 | Persona99

8 | 2

1.59 ГБ

В этой теме нет новых непрочитанных сообщений. Дюрарара!! 2 (сезон второй) / Durarara!!x2 Ten [TV] [1-9 из 12] (2015) HDTVRip 720 | Persona99

170 | 6

3.41 ГБ

В этой теме нет новых непрочитанных сообщений. Дюрарара!! 2 (сезон третий) / Durarara!!x2 Ketsu [TV] [01-02 из 12] (2016) HDTVRip 720p | Persona99

2 | 2

929.51 МБ




Вы не можете начинать темы
Вы не можете отвечать на сообщения
Вы не можете редактировать свои сообщения
Вы не можете удалять свои сообщения
Вы не можете добавлять вложения

Перейти:  
Для Мосгорсуда, Роскомнадзора и рекламодателей: mosgorsud-torrent[собачка]yandex.ru
 Вход
ppkBB3cker v.2 © 2008-2014 @ PPK
[ Time : 0.030s | 16 Queries | GZIP : On ]

Торрент трекер RUTOR.IN, Не можете зайти на rutor.org? Какой новый адрес рутор? Какое зеркало рутор? Не работает rutor.org и зеркала? Тогда наш торрент специально для вас. Rutor.in неофициальное зеркало rutor. В случае если у Вас заблокирован rutor или вдруг Вы не можете на него зайти, то Вы без труда сможете скачать бесплатно и без рекламы последние новинки кино, игр, сериалов и прочего у нас, на Rutor.in. Не нужно использовать прокси, чтобы зайти на рутор, достаточно воспользоваться нашим ресурсом. Все новые фильмы, игры, сериалы, книги и музыка за 2013 и 2014 годы через торрент бесплатно. Скачивайте фильмы в хорошем качестве, игры для пк, xbox, playstation без регистрации. У нас вы найдете новые Зарубежные сериалы и Русские сериалы 2013, 2014, 2015 годов. Оставайтесь с нами, качайте любимые фильмы, игры, сериалы, книги и музыку.