img image001 image001 image001 image001 image001 image001 image001 image001 image001 image001 image001 image001 image001 image001 image001

Planets Sun Sun Sun
Статистика раздачи
Автор: Nickolas3434 | Размер: 2.2 ГБ | Добавлен: 19 янв 2015
Раздают: 75    Качают: 21
Скачать торрент
Скачать торрент
Описание торрента

СообщениеДобавлено: 19 янв 2015 

Информация о фильме
Название: 3x3 глаза
Оригинальное название: 3 X 3 Eyes / Sazan Eyes / 3x3 Eyes - Immortals / Sazan Aizu / 3×3EYES / サザンアイズ
Страна: Япония
Год выхода: 1991
Жанр: приключения, романтика, мистика, ужасы
Режиссер: Нисио Дайсукэ / Nishio Daisuke / 西尾大介
Автор оригинала: Такада Юдзо / Takada Yuzo / 高田裕三
О фильме: Якумо Фудзии, как обычно, обычный школьник, правда, его папаша слишком увлечен археологией и уже давно не кажет носа в Токио. Якумо не унывает, он сам прекрасно со всем справляется, учится в старшей школе, а по вечерам подрабатывает официанткой в баре для трансвеститов. Внезапно, в его жизнь врывается Пай – робкая девочка с Тибета, которая передает ему завещание отца – помочь ей найти волшебную статуэтку и… стать человеком. Оказывается, Пай – последняя из сандзян, могущественной расы, наделенной удивительными магическими способностями и третьим глазом. Конец пришел мирной жизни Якумо. Во-первых, он хочет помочь Пай, во-вторых, в Пай уживаются две личности, милой девушки, которая ему нравится, и высокомерной сандзян. В третьих, так получилось, что жизни Якумо и бессмертной сандзян теперь связаны, и снова стать смертным он сможет только если сандзян станет человеком… начинаются поиски волшебной статуэтки и прошлого Пай.
Студия:
Продолжительность: OVA (4 эп.), 30 мин.
Перевод: Любительский (одноголосый)
Озвучка: Kippei
Субтитры: отсутствуют
Полухардсаб: логотип
Файл
Качество: BDRip [QTS]
Формат: MP4
Видео: 960 x 720 (4:3) at 29.970 fps, AVC (x264), High@L3.0, 2574 Kbps avg, 0.124 bit/pixel, 8 bit
Аудио: 48.0 kHz, AAC, 2 ch, 163 kbps avg
Релиз от:
Общее
Полное имя : [LE-Production]_3x3_Eyes_Immortals_[BDRip]_[rus]_[960x720_x264]_[Kippei][LE-Production]_3x3_Eyes_Immortals_[01]_[BDRip]_[rus]_[960x720_x264]_[Kippei].mp4
Формат : MPEG-4
Профиль формата : Base Media
Идентификатор кодека : isom
Размер файла : 589 Мбайт
Продолжительность : 30 м.
Общий поток : 2741 Кбит/сек
Дата кодирования : UTC 2015-01-08 16:59:11
Дата пометки : UTC 2015-01-08 16:59:11
Правообладатель : LE-Production
Видео
Идентификатор : 1
Формат : AVC
Формат/Информация : Advanced Video Codec
Профиль формата : High@L3.0
Параметр CABAC формата : Да
Параметр ReFrames формата : 4 кадры
Идентификатор кодека : avc1
Идентификатор кодека/Информация : Advanced Video Coding
Продолжительность : 30 м.
Вид битрейта : Переменный
Битрейт : 2574 Кбит/сек
Максимальный битрейт : 8004 Кбит/сек
Ширина : 960 пикс.
Высота : 720 пикс.
Соотношение сторон : 4:3
Режим частоты кадров : Постоянный
Частота кадров : 29,970 кадр/сек
Цветовое пространство : YUV
Подвыборка цветности : 4:2:0
Битовая глубина : 8 бит
Тип развёртки : Прогрессивная
Бит/(Пиксели*Кадры) : 0.124
Размер потока : 553 Мбайт (94%)
Библиотека кодирования : x264 core 130 r2273 b3065e6
Настройки программы : cabac=1 / ref=1 / deblock=1:1:1 / analyse=0x3:0x3 / me=dia / subme=1 / psy=1 / psy_rd=0.40:0.00 / mixed_ref=0 / me_range=16 / chroma_me=1 / trellis=0 / 8x8dct=1 / cqm=0 / deadzone=21,11 / fast_pskip=1 / chroma_qp_offset=0 / threads=12 / lookahead_threads=2 / sliced_threads=0 / nr=0 / decimate=1 / interlaced=0 / bluray_compat=0 / constrained_intra=0 / bframes=5 / b_pyramid=2 / b_adapt=1 / b_bias=0 / direct=1 / weightb=1 / open_gop=0 / weightp=1 / keyint=250 / keyint_min=25 / scenecut=40 / intra_refresh=0 / rc=crf / mbtree=0 / crf=19.0 / qcomp=0.60 / qpmin=0 / qpmax=69 / qpstep=4 / ip_ratio=1.40 / pb_ratio=1.30 / aq=1:0.60
Язык : Russian
Дата кодирования : UTC 2015-01-08 16:59:11
Дата пометки : UTC 2015-01-08 16:59:22
Аудио
Идентификатор : 2
Формат : AAC
Формат/Информация : Advanced Audio Codec
Профиль формата : LC
Идентификатор кодека : 40
Продолжительность : 30 м.
Вид битрейта : Переменный
Битрейт : 163 Кбит/сек
Максимальный битрейт : 388 Кбит/сек
Канал(ы) : 2 канала(ов)
Расположение каналов : Front: L R
Частота : 48,0 КГц
Метод сжатия : С потерями
Размер потока : 35,1 Мбайт (6%)
Язык : Russian
Дата кодирования : UTC 2015-01-08 16:59:20
Дата пометки : UTC 2015-01-08 16:59:22
01. Transmigration
02. Yakumo
03. Sacrifice
04. Straying





   Похожие торренты   Торрент   Размер 
В этой теме нет новых непрочитанных сообщений. Глаза ангела / Eyes of an Angel (1991) HDTVRip 720p от ExKinoRay

7 | 1

2.48 ГБ

В этой теме нет новых непрочитанных сообщений. Глаза ангела / Eyes of an Angel (1991) HDTV 1080i

11 | 4

4.31 ГБ

В этой теме нет новых непрочитанных сообщений. Глаза ангела / Ангельские глазки / Eyes of an Angel (1991) HDTVRip | P

14 | 2

1.36 ГБ

В этой теме нет новых непрочитанных сообщений. Глаза ангела / Ангельские глазки / Eyes of an Angel (1991) HDTVRip-AVC от ExKinoRay

3 | 35

1.37 ГБ

В этой теме нет новых непрочитанных сообщений. Глаза змеи / Snake Eyes (1998) BDRip 720p | D, P, A

43 | 6

7.88 ГБ

В этой теме нет новых непрочитанных сообщений. Глаза звезды / Starry Eyes (2014) BDRip 720p | L2

14 | 7

4.5 ГБ

В этой теме нет новых непрочитанных сообщений. Большие глаза / Big Eyes (2014) BDRip 720p | iTunes

208 | 7

6.97 ГБ




Вы не можете начинать темы
Вы не можете отвечать на сообщения
Вы не можете редактировать свои сообщения
Вы не можете удалять свои сообщения
Вы не можете добавлять вложения

Перейти:  
Для Мосгорсуда, Роскомнадзора и рекламодателей: mosgorsud-torrent[собачка]yandex.ru
 Вход
ppkBB3cker v.2 © 2008-2014 @ PPK
[ Time : 0.021s | 17 Queries | GZIP : On ]

Торрент трекер RUTOR.IN, Не можете зайти на rutor.org? Какой новый адрес рутор? Какое зеркало рутор? Не работает rutor.org и зеркала? Тогда наш торрент специально для вас. Rutor.in неофициальное зеркало rutor. В случае если у Вас заблокирован rutor или вдруг Вы не можете на него зайти, то Вы без труда сможете скачать бесплатно и без рекламы последние новинки кино, игр, сериалов и прочего у нас, на Rutor.in. Не нужно использовать прокси, чтобы зайти на рутор, достаточно воспользоваться нашим ресурсом. Все новые фильмы, игры, сериалы, книги и музыка за 2013 и 2014 годы через торрент бесплатно. Скачивайте фильмы в хорошем качестве, игры для пк, xbox, playstation без регистрации. У нас вы найдете новые Зарубежные сериалы и Русские сериалы 2013, 2014, 2015 годов. Оставайтесь с нами, качайте любимые фильмы, игры, сериалы, книги и музыку.