img image001 image001 image001 image001 image001 image001 image001 image001 image001 image001 image001 image001 image001 image001 image001

Planets Sun Sun Sun
Статистика раздачи
Автор: Nickolas3434 | Размер: 4.11 ГБ | Добавлен: 27 янв 2015
Раздают: 61    Качают: 5
Скачать торрент
Скачать торрент
Описание торрента

СообщениеДобавлено: 27 янв 2015 

Hatsune Miku 初音ミク MAGICAL MIRAI 2014 in OSAKA
Жанр: J-POP, Vocaloid
Продолжительность: 1:56:28
Год выпуска: 2014
Описание: Новый концерт Мику и её друзей, прошедший 30.08.2014 в Осаке и посвящённый её 7 "Дню рождения".
Треклист:
1. カゲロウデイズ
2. 二次元ドリームフィーバー
3. 心臓デモクラシー
4. ありふれたせかいせいふく
5. スキキライ
6. からくりピエロ
7. Weekender Girl
8. Freely Tomorrow
9. 深海少女
10. ピアノ×フォルテ×スキャンダル
11. erase or zero
12. glow
13. Hello, Worker
14. アカツキアライヴァル
15. ワンダーランドと羊の歌
16. tell your world
17. 东京テディベア
18. Last Night Good Night
19. キャットフード
20. earth day
21. ゆめゆめ
22. ODDS&ENDS
ED1. sweet devil
ED2. shake it!
ED3. 39
Доп. информация: Скачано с забугорного сайта релизеров и пережато по причине того, что они выложили 10-битный рип, да ещё и с частотой 60fps, и мой бюджетный ноут (CPU 2x2,3 GHz, video integrated 256 Mb) его не потянул, а смотреть концерт "в квадратик" в формате flv с битрейтом меньше 2000 Kbps, тоже ими выложенном -- по мне, так это извращение. Поэтому я решил сконвертировать видео в обычный 8-битный формат и урезать вдвое fps (до 30). А сконвертировав, подумал, что владельцам староватых и слабоватых компьютеров или обладателей планшетов больше устроит этот вариант. Поэтому решил поделиться со всеми.
Для сравнения: при проигрывании оригинала в обоих моих плеерах (и MPC, и PotPlayer, способные пропускать кадры и "догонять" видео при подтормаживании) fps периодически (т.е. каждые сек 10) проседало с 60 до 40-45, а то и меньше в динамичных сценах, и после минуты проигрывания отставало секунд на 5-10. После пережатия видео проигрывается без подтормаживания с максимальной загруженностью процессора в 65-75%. Так что для всяких любителей 10-битного видео -- не у всех есть возможность смотреть видео 10 бит в супервысоком разрешении. Эта раздача создана для тех, кто не может.
Кстати, в источнике было расхождение аудио и видео около 0,3 сек. Исправлено при упаковке в матрёшку.
Хочу предупредить: в некоторых местах на видео видны "артефакты" (местами -- явно). Это не плохое качество перекодирования, при сравнении этих мест с источником я обнаружил, что практически все "артефакты" присутствовали на источнике (к сожалению, у меня нет исходного BD или с чего там делался тот 10-битный рип, который я конвертировал), т.е. это не из-за моих криворуких настроек конвертера. Примеры внизу (три нижних скриншота). Возможно, на скриншоте оно не очень понятно, но при просмотре видео "артефакты" всё же заметны...
Качество: HDTVRip 720p
Контейнер: MKV
Видео кодек: H.264
Аудио кодек: AC3
Видео: H.264 AVC, 1280x720, 4800 Kbps, 30 fps, 8 бит
Аудио: AC-3, 256 Kbps, 48 KHz, 16 bits, stereo
Код:
General
Unique ID                : 230107297213006612661590112752388680049 (0xAD1D0DAC704868639F4925E471422971)
Complete name              : G:Hatsune Miku [Magical Mirai 2014] in OSAKAHatsune Miku [Magical Mirai 2014] in OSAKA.mkv
Format                  : Matroska
Format version              : Version 4 / Version 2
File size                : 4.11 GiB
Duration                 : 1h 56mn
Overall bit rate             : 5 051 Kbps
Encoded date               : UTC 2014-11-10 11:47:41
Writing application           : mkvmerge v7.3.0 ('Nouages') 64bit built on Oct 22 2014 18:53:34
Writing library             : libebml v1.3.0 + libmatroska v1.4.1
DURATION                 : 01:56:28.864000000
NUMBER_OF_FRAMES             : 218402
NUMBER_OF_BYTES             : 223643648
_STATISTICS_WRITING_APP         : mkvmerge v7.3.0 ('Nouages') 64bit built on Oct 22 2014 18:53:34
_STATISTICS_WRITING_DATE_UTC       : 2014-11-10 11:47:41
_STATISTICS_TAGS             : BPS DURATION NUMBER_OF_FRAMES NUMBER_OF_BYTES
Video
ID                    : 1
Format                  : AVC
Format/Info               : Advanced Video Codec
Format profile              : High@L5.2
Format settings, CABAC          : Yes
Format settings, ReFrames        : 8 frames
Codec ID                 : V_MPEG4/ISO/AVC
Duration                 : 1h 56mn
Bit rate                 : 4 800 Kbps
Width                  : 1 280 pixels
Height                  : 720 pixels
Display aspect ratio           : 16:9
Frame rate mode             : Constant
Frame rate                : 30.000 fps
Color space               : YUV
Chroma subsampling            : 4:2:0
Bit depth                : 8 bits
Scan type                : Progressive
Bits/(Pixel*Frame)            : 0.174
Stream size               : 3.82 GiB (93%)
Writing library             : x264 core 142 r2479
Encoding settings            : cabac=1 / ref=8 / deblock=1:0:0 / analyse=0x3:0x133 / me=tesa / subme=11 / psy=1 / psy_rd=1.00:0.00 / mixed_ref=1 / me_range=16 / chroma_me=1 / trellis=2 / 8x8dct=1 / cqm=0 / deadzone=21,11 / fast_pskip=0 / chroma_qp_offset=-2 / threads=3 / lookahead_threads=1 / sliced_threads=0 / nr=0 / decimate=1 / interlaced=0 / bluray_compat=0 / constrained_intra=0 / bframes=3 / b_pyramid=2 / b_adapt=2 / b_bias=0 / direct=2 / weightb=1 / open_gop=0 / weightp=2 / keyint=300 / keyint_min=30 / scenecut=40 / intra_refresh=0 / rc_lookahead=60 / rc=abr / mbtree=1 / bitrate=4800 / ratetol=1.0 / qcomp=0.60 / qpmin=5 / qpmax=69 / qpstep=4 / vbv_maxrate=24000 / vbv_bufsize=24000 / nal_hrd=none / filler=0 / ip_ratio=1.40 / aq=1:1.00
Language                 : Japanese
Default                 : Yes
Forced                  : No
Audio
ID                    : 2
Format                  : AC-3
Format/Info               : Audio Coding 3
Mode extension              : CM (complete main)
Format settings, Endianness       : Big
Codec ID                 : A_AC3
Duration                 : 1h 56mn
Bit rate mode              : Constant
Bit rate                 : 256 Kbps
Channel(s)                : 2 channels
Channel positions            : Front: L R
Sampling rate              : 48.0 KHz
Bit depth                : 16 bits
Compression mode             : Lossy
Delay relative to video         : 270ms
Stream size               : 213 MiB (5%)
Title                  : Magical Mirai 2014
Language                 : Japanese
Default                 : Yes
Forced                  : No



Скриншоты с "артефактами":



   Похожие торренты   Торрент   Размер 
В этой теме нет новых непрочитанных сообщений. Хатсуне Мику / Hatsune Miku 初音ミク EXPO 2014 in New York ~Live~ (2014) HDTV 720p

36 | 3

2.3 ГБ

В этой теме нет новых непрочитанных сообщений. Хатсуне Мику / Hatsune Miku (Concert) (2010) BDRip

68 | 77

5.62 ГБ

В этой теме нет новых непрочитанных сообщений. Hatsune Miku-39's Giving Day (2010) BDRip от HQ-ViDEO

11 | 4

1.46 ГБ

В этой теме нет новых непрочитанных сообщений. Ryo (supercell) feat. Hatsune Miku - Sekiranun Graffiti [клип] (2011) HDTVRip

2 | 45

43.3 МБ

В этой теме нет новых непрочитанных сообщений. В поисках утраченного будущего / Ushinawareta Mirai o Motomete / Waremete [12 из 12] (2014) HDTVRip 720p | L1

41 | 6

3.77 ГБ

В этой теме нет новых непрочитанных сообщений. В поисках утраченного будущего / Ushinawareta Mirai o Motomete / Waremete [12 из 12] (2014) HDTVRip 720p | L1

84 | 11

3.77 ГБ

В этой теме нет новых непрочитанных сообщений. Сумо. Мартовский турнир 2014: Хару Басё (Осака) / Haru Basho (Osaka) (2014) SATRip

54 | 15

3.21 ГБ




Вы не можете начинать темы
Вы не можете отвечать на сообщения
Вы не можете редактировать свои сообщения
Вы не можете удалять свои сообщения
Вы не можете добавлять вложения

Перейти:  
Для Мосгорсуда, Роскомнадзора и рекламодателей: mosgorsud-torrent[собачка]yandex.ru
 Вход
ppkBB3cker v.2 © 2008-2014 @ PPK
[ Time : 0.026s | 16 Queries | GZIP : Off ]

cron