img image001 image001 image001 image001 image001 image001 image001 image001 image001 image001 image001 image001 image001 image001 image001

Planets Sun Sun Sun
Статистика раздачи
Автор: Nickolas3434 | Размер: 3 ГБ | Добавлен: 01 фев 2015
Раздают: 89    Качают: 15
Скачать торрент
Скачать торрент
Описание торрента

СообщениеДобавлено: 01 фев 2015 

Информация о фильме
Название: Мой сосед Тоторо
Оригинальное название: Tonari no Totoro (My Neighbor Totoro)
Год выхода: 1988
Жанр: Приключения, комедия, сказка, драма
Режиссер: Хаяо Миядзаки
В ролях: Норико Хидака, Тика Сакамото, Сигэсато Итой, Суми Симамото, Таниэ Китабаяси, Хитоси Такаги, Хироко Маруяма, Матико Васио, Рэйко Судзуки, Масаси Хиросэ, Тосиюки Амагаса, Сигэру Тиба
О фильме: Переехав в деревню, две маленькие сестры, старшая (Сацуки) и младшая (Мэй), знакомятся с лесным духом, которого Мэй называет «Тоторо» (искаженное «тролль»). Подружившись с девочками, Тоторо не только устраивает им воздушную экскурсию по своим владениям, но и помогает повидаться с мамой, которая лежит в больнице.

Страна: Япония
Студия: Studio Ghibli
Продолжительность: 01:26:26
Перевод: Профессиональный многоголосый, профессиональный двухголосый, авторский одноголосый, украинский
Файл
Кодек: MPEG-4 AVC
Качество: BDRip-AVC
Видео: 3200 Кбит/с, 1024х552, 23.976 кадр/с
Звук:
Аудио #1: Русский (AC3, 2 ch, 192 Кбит/с) / Профессиональный многоголосый (Ruscico)
Аудио #2: Русский (AC3, 2 ch, 192 Кбит/с) / Профессиональный многоголосый (Киномания)
Аудио #3: Русский (AC3, 2 ch, 192 Кбит/с) / Профессиональный двухголосый (Tycoon)
Аудио #4: Русский (AC3, 2 ch, 192 Кбит/с) / Профессиональный двухголосый (Петр Гланц и Татьяна Казакова)
Аудио #5: Русский (AC3, 2 ch, 192 Кбит/с) / Профессиональный двухголосый
Аудио #6: Русский (AC3, 2 ch, 192 Кбит/с) / Авторский одноголосый (Артём Толстобров)
Аудио #7: Украинский (AC3, 2 ch, 224 Кбит/с) / Профессиональный многоголосый (Студія "Омікрон")
Аудио #8: Английский (AC3, 2 ch, 192 Кбит/с) / Дублированный
Аудио #9: Японский (AC3, 2 ch, 192 Кбит/с)
Субтитры: Русские, украинские, английские
Семпл
Общее
Уникальный идентификатор : 230342258403710257698974511712467226773 (0xAD4A4E27999CD66E828E4B7666591095)
Полное имя : H:1FilmsHРелизыMoj.sosed.Totoro.1988.x264.BDRip.AVC.MediaClub.mkv
Формат : Matroska
Версия формата : Version 4 / Version 2
Размер файла : 3,00 Гбайт
Продолжительность : 1 ч. 26 м.
Общий поток : 4963 Кбит/сек
Название фильма : -= MediaClub =- rip by Lefevr
Дата кодирования : UTC 2015-01-29 21:20:58
Программа кодирования : mkvmerge v6.1.0 ('Old Devil') built on Mar 4 2013 09:10:42
Библиотека кодирования : libebml v1.3.0 + libmatroska v1.4.0
Видео
Идентификатор : 1
Формат : AVC
Формат/Информация : Advanced Video Codec
Профиль формата : High@L4.1
Параметр CABAC формата : Да
Параметр ReFrames формата : 8 кадров
Идентификатор кодека : V_MPEG4/ISO/AVC
Продолжительность : 1 ч. 26 м.
Битрейт : 3200 Кбит/сек
Ширина : 1024 пикселя
Высота : 552 пикселя
Соотношение сторон : 1,85:1
Режим частоты кадров : Постоянный
Частота кадров : 23,976 кадра/сек
Цветовое пространство : YUV
Субдискретизация насыщенности : 4:2:0
Битовая глубина : 8 бит
Тип развёртки : Прогрессивная
Бит/(Пиксели*Кадры) : 0.236
Размер потока : 1,87 Гбайт (63%)
Заголовок : Moj.sosed.Totoro.1988.x264.BDRip.AVC.MediaClub
Библиотека кодирования : x264 core 130 r2273 b3065e6
Настройки программы : cabac=1 / ref=8 / deblock=1:-2:-2 / analyse=0x3:0x133 / me=umh / subme=11 / psy=1 / psy_rd=1.00:0.05 / mixed_ref=1 / me_range=32 / chroma_me=1 / trellis=2 / 8x8dct=1 / cqm=0 / deadzone=21,11 / fast_pskip=0 / chroma_qp_offset=-3 / threads=6 / lookahead_threads=1 / sliced_threads=0 / nr=0 / decimate=0 / interlaced=0 / bluray_compat=0 / constrained_intra=0 / bframes=9 / b_pyramid=2 / b_adapt=2 / b_bias=0 / direct=3 / weightb=1 / open_gop=0 / weightp=2 / keyint=240 / keyint_min=23 / scenecut=40 / intra_refresh=0 / rc_lookahead=60 / rc=2pass / mbtree=1 / bitrate=3200 / ratetol=1.0 / qcomp=0.60 / qpmin=0 / qpmax=69 / qpstep=4 / cplxblur=20.0 / qblur=0.5 / ip_ratio=1.40 / aq=1:0.80
Язык : English
Default : Да
Forced : Да
Аудио #1
Идентификатор : 2
Формат : AC-3
Формат/Информация : Audio Coding 3
Расширение режима : CM (complete main)
Параметр Endianness формата : Big
Идентификатор кодека : A_AC3
Продолжительность : 1 ч. 26 м.
Вид битрейта : Постоянный
Битрейт : 192 Кбит/сек
Каналы : 2 канала
Расположение каналов : Front: L R
Частота : 48,0 КГц
Битовая глубина : 16 бит
Метод сжатия : С потерями
Размер потока : 119 Мбайт (4%)
Заголовок : TRACK_01_MVO_RUS_Ruscico
Язык : Russian
Default : Да
Forced : Да
Аудио #2
Идентификатор : 3
Формат : AC-3
Формат/Информация : Audio Coding 3
Расширение режима : CM (complete main)
Параметр Endianness формата : Big
Идентификатор кодека : A_AC3
Продолжительность : 1 ч. 26 м.
Вид битрейта : Постоянный
Битрейт : 192 Кбит/сек
Каналы : 2 канала
Расположение каналов : Front: L R
Частота : 48,0 КГц
Битовая глубина : 16 бит
Метод сжатия : С потерями
Размер потока : 119 Мбайт (4%)
Заголовок : TRACK_02_MVO_RUS_Киномания
Язык : Russian
Default : Нет
Forced : Нет
Аудио #3
Идентификатор : 4
Формат : AC-3
Формат/Информация : Audio Coding 3
Расширение режима : CM (complete main)
Параметр Endianness формата : Big
Идентификатор кодека : A_AC3
Продолжительность : 1 ч. 26 м.
Вид битрейта : Постоянный
Битрейт : 192 Кбит/сек
Каналы : 2 канала
Расположение каналов : Front: L R
Частота : 48,0 КГц
Битовая глубина : 16 бит
Метод сжатия : С потерями
Размер потока : 119 Мбайт (4%)
Заголовок : TRACK_03_DVO_RUS_Tycoon
Язык : Russian
Default : Нет
Forced : Нет
Аудио #4
Идентификатор : 5
Формат : AC-3
Формат/Информация : Audio Coding 3
Расширение режима : CM (complete main)
Параметр Endianness формата : Big
Идентификатор кодека : A_AC3
Продолжительность : 1 ч. 26 м.
Вид битрейта : Постоянный
Битрейт : 192 Кбит/сек
Каналы : 2 канала
Расположение каналов : Front: L R
Частота : 48,0 КГц
Битовая глубина : 16 бит
Метод сжатия : С потерями
Размер потока : 119 Мбайт (4%)
Заголовок : TRACK_04_DVO_RUS_П.Гланц и Т.Казакова
Язык : Russian
Default : Нет
Forced : Нет
Аудио #5
Идентификатор : 6
Формат : AC-3
Формат/Информация : Audio Coding 3
Расширение режима : CM (complete main)
Параметр Endianness формата : Big
Идентификатор кодека : A_AC3
Продолжительность : 1 ч. 26 м.
Вид битрейта : Постоянный
Битрейт : 192 Кбит/сек
Каналы : 2 канала
Расположение каналов : Front: L R
Частота : 48,0 КГц
Битовая глубина : 16 бит
Метод сжатия : С потерями
Размер потока : 119 Мбайт (4%)
Заголовок : TRACK_05_DVO_RUS
Язык : Russian
Default : Нет
Forced : Нет
Аудио #6
Идентификатор : 7
Формат : AC-3
Формат/Информация : Audio Coding 3
Расширение режима : CM (complete main)
Параметр Endianness формата : Big
Идентификатор кодека : A_AC3
Продолжительность : 1 ч. 26 м.
Вид битрейта : Постоянный
Битрейт : 192 Кбит/сек
Каналы : 2 канала
Расположение каналов : Front: L R
Частота : 48,0 КГц
Битовая глубина : 16 бит
Метод сжатия : С потерями
Размер потока : 119 Мбайт (4%)
Заголовок : TRACK_06_AVO_RUS_А.Толстобров
Язык : Russian
Default : Нет
Forced : Нет
Аудио #7
Идентификатор : 8
Формат : AC-3
Формат/Информация : Audio Coding 3
Расширение режима : CM (complete main)
Параметр Endianness формата : Big
Идентификатор кодека : A_AC3
Продолжительность : 1 ч. 26 м.
Вид битрейта : Постоянный
Битрейт : 224 Кбит/сек
Каналы : 2 канала
Расположение каналов : Front: L R
Частота : 48,0 КГц
Битовая глубина : 16 бит
Метод сжатия : С потерями
Размер потока : 138 Мбайт (5%)
Заголовок : TRACK_07_MVO_UKR_Студія Омікрон
Язык : Ukrainian
Default : Нет
Forced : Нет
Аудио #8
Идентификатор : 9
Формат : AC-3
Формат/Информация : Audio Coding 3
Расширение режима : CM (complete main)
Параметр Endianness формата : Big
Идентификатор кодека : A_AC3
Продолжительность : 1 ч. 26 м.
Вид битрейта : Постоянный
Битрейт : 192 Кбит/сек
Каналы : 2 канала
Расположение каналов : Front: L R
Частота : 48,0 КГц
Битовая глубина : 16 бит
Метод сжатия : С потерями
Размер потока : 119 Мбайт (4%)
Заголовок : TRACK_08_DUB_ENG
Язык : English
Default : Нет
Forced : Нет
Аудио #9
Идентификатор : 10
Формат : AC-3
Формат/Информация : Audio Coding 3
Расширение режима : CM (complete main)
Параметр Endianness формата : Big
Идентификатор кодека : A_AC3
Продолжительность : 1 ч. 26 м.
Вид битрейта : Постоянный
Битрейт : 192 Кбит/сек
Каналы : 2 канала
Расположение каналов : Front: L R
Частота : 48,0 КГц
Битовая глубина : 16 бит
Метод сжатия : С потерями
Размер потока : 119 Мбайт (4%)
Заголовок : TRACK_09_ORIGINAL_JPN
Язык : Japanese
Default : Нет
Forced : Нет
Текст #1
Идентификатор : 11
Формат : UTF-8
Идентификатор кодека : S_TEXT/UTF8
Идентификатор кодека/Информация : UTF-8 Plain Text
Заголовок : TEXT_01_SUB_RUS_RUSCICO.srt
Язык : Russian
Default : Нет
Forced : Нет
Текст #2
Идентификатор : 12
Формат : UTF-8
Идентификатор кодека : S_TEXT/UTF8
Идентификатор кодека/Информация : UTF-8 Plain Text
Заголовок : TEXT_02_SUB_UKR.srt
Язык : Ukrainian
Default : Нет
Forced : Нет
Текст #3
Идентификатор : 13
Формат : UTF-8
Идентификатор кодека : S_TEXT/UTF8
Идентификатор кодека/Информация : UTF-8 Plain Text
Заголовок : TEXT_03_SUB_ENG.srt
Язык : English
Default : Нет
Forced : Нет
Меню
00:00:00.000 : en:Opening Credits/The New Home
00:05:00.000 : en:A Haunted House?
00:10:00.000 : en:Visiting Mother
00:15:00.000 : en:Discovery!
00:20:00.000 : en:Mei's Tale
00:25:00.000 : en:School With Satsuki
00:30:00.000 : en:Kanta's Umbrella
00:35:00.000 : en:The Bus Stop
00:40:00.000 : en:Totoro's Gift
00:45:00.000 : en:The Telegram
00:50:00.000 : en:Searching for Mei
00:55:00.000 : en:The Hospital Express/End Credits
01:00:00.000 : en:End Credits
01:05:00.000 : en:The Telegram
01:10:00.000 : en:Searching for Mei
01:15:00.000 : en:The Hospital Express/End Credits
01:20:00.000 : en:Chapter 17
01:25:00.000 : en:Chapter 18
...last pass...
x264.exe: --pass 2 --bitrate 3200 --preset veryslow --profile high --level 4.1 --ref 8 --aq-strength 0.8 --deblock -2:-2 --merange 32 --bframes 9 --no-fast-pskip --no-dct-decimate --psy-rd 1.00:0.05 --subme 11 --keyint 240 --sar 1:1 --stats "E:1Films EРелизыMy Neighbor Totoro11111_2.log" --output "E:1Films EРелизыMy Neighbor Totoro11111_2.mkv" "F:Temp\0107.avs"
avs [info]: 1024x552p 1:1 @ 2500000/104271 fps (cfr)
x264 [info]: using SAR=1/1
x264 [info]: using cpu capabilities: MMX2 SSE2Fast SSSE3 SSE4.2 AVX
x264 [info]: profile High, level 4.1
x264 [info]: frame I:955 Avg QP:14.34 size:132147
x264 [info]: frame P:26310 Avg QP:17.98 size: 43741
x264 [info]: frame B:97054 Avg QP:20.52 size: 8214
x264 [info]: consecutive B-frames: 2.1% 1.8% 7.4% 19.0% 17.9% 37.3% 7.9% 3.0% 1.4% 2.0%
x264 [info]: mb I I16..4: 2.8% 58.7% 38.5%
x264 [info]: mb P I16..4: 0.1% 2.4% 1.3% P16..4: 29.7% 40.0% 20.9% 4.3% 0.7% skip: 0.6%
x264 [info]: mb B I16..4: 0.0% 0.1% 0.2% B16..8: 34.8% 18.3% 3.8% direct: 5.5% skip:37.2% L0:47.8% L1:40.9% BI:11.3%
x264 [info]: 8x8 transform intra:58.5% inter:51.6%
x264 [info]: direct mvs spatial:97.0% temporal:3.0%
x264 [info]: coded y,uvDC,uvAC intra: 96.0% 90.9% 80.5% inter: 30.6% 21.6% 12.8%
x264 [info]: i16 v,h,dc,p: 44% 12% 22% 21%
x264 [info]: i8 v,h,dc,ddl,ddr,vr,hd,vl,hu: 14% 8% 11% 10% 12% 11% 11% 10% 13%
x264 [info]: i4 v,h,dc,ddl,ddr,vr,hd,vl,hu: 22% 8% 4% 9% 12% 11% 11% 11% 12%
x264 [info]: i8c dc,h,v,p: 50% 19% 18% 12%
x264 [info]: Weighted P-Frames: Y:18.3% UV:3.7%
x264 [info]: ref P L0: 34.7% 8.2% 18.6% 9.1% 9.3% 6.8% 7.3% 4.5% 1.4% 0.1%
x264 [info]: ref B L0: 61.6% 16.5% 8.1% 5.5% 4.0% 2.9% 1.4%
x264 [info]: ref B L1: 92.3% 7.7%
x264 [info]: kb/s:3200.30



Релиз от: | Автор рипа:



   Похожие торренты   Торрент   Размер 
В этой теме нет новых непрочитанных сообщений. Мой сосед Тоторо / Tonari no Totoro / My Neighbor Totoro (1988) BDRip 1080p от NNNB | P, P2, A

212 | 20

5.76 ГБ

В этой теме нет новых непрочитанных сообщений. Мой сосед Тоторо / My Neighbor Totoro / Tonari no Totoro (1988) BDRip 720p от Leonardo and Scarabey | P, P2

787 | 28

3.71 ГБ

В этой теме нет новых непрочитанных сообщений. Мой сосед Тоторо / Tonari no Totoro / My Neighbour Totoro (1988) DVD5 vadi

81 | 10

4.36 ГБ

В этой теме нет новых непрочитанных сообщений. Мой безбашенный сосед / Tonari no Kaibutsu-kun [01-13 из 13] (2012) HDTVRip 720p | L2

46 | 12

5.3 ГБ

В этой теме нет новых непрочитанных сообщений. Сосед / The Neighbor (2016) WEB-DLRip-AVC | L1

260 | 71

2.05 ГБ

В этой теме нет новых непрочитанных сообщений. Сосед / The Neighbor (2016) WEB-DLRip-AVC от k.e.n | L1

187 | 52

1.46 ГБ

В этой теме нет новых непрочитанных сообщений. Сосед / The Neighbor (2016) WEB-DLRip | L1

3629 | 235

1.36 ГБ




Вы не можете начинать темы
Вы не можете отвечать на сообщения
Вы не можете редактировать свои сообщения
Вы не можете удалять свои сообщения
Вы не можете добавлять вложения

Перейти:  
Для Мосгорсуда, Роскомнадзора и рекламодателей: mosgorsud-torrent[собачка]yandex.ru
 Вход
ppkBB3cker v.2 © 2008-2014 @ PPK
[ Time : 0.044s | 15 Queries | GZIP : On ]

Торрент трекер RUTOR.IN, Не можете зайти на rutor.org? Какой новый адрес рутор? Какое зеркало рутор? Не работает rutor.org и зеркала? Тогда наш торрент специально для вас. Rutor.in неофициальное зеркало rutor. В случае если у Вас заблокирован rutor или вдруг Вы не можете на него зайти, то Вы без труда сможете скачать бесплатно и без рекламы последние новинки кино, игр, сериалов и прочего у нас, на Rutor.in. Не нужно использовать прокси, чтобы зайти на рутор, достаточно воспользоваться нашим ресурсом. Все новые фильмы, игры, сериалы, книги и музыка за 2013 и 2014 годы через торрент бесплатно. Скачивайте фильмы в хорошем качестве, игры для пк, xbox, playstation без регистрации. У нас вы найдете новые Зарубежные сериалы и Русские сериалы 2013, 2014, 2015 годов. Оставайтесь с нами, качайте любимые фильмы, игры, сериалы, книги и музыку.