img image001 image001 image001 image001 image001 image001 image001 image001 image001 image001 image001 image001 image001 image001 image001

Planets Sun Sun Sun
Статистика раздачи
Автор: Nickolas3434 | Размер: 1.67 ГБ | Добавлен: 02 фев 2015
Раздают: 23    Качают: 16
Скачать торрент
Скачать торрент
Описание торрента

СообщениеДобавлено: 02 фев 2015 

Информация о фильме
Название: Токийский гуль [ТВ-2] / Токийский монстр
Оригинальное название: Tokyo Ghoul A / 東京喰種トーキョーグール√A
Страна: Япония
Год выхода: 2015
Жанр: приключения, мистика, ужасы
Режиссер: Морита Сюхэй / Morita Shuhei / 森田修平
Автор оригинала: Исида Суи / Ishida Sui / 石田スイ
О фильме: Токио населяют гули, и они пожирают людей. Их жертвой может стать любой... Провожая свою подругу студент Канеки познал это на своей шкуре, едва избежав смерти Канеки очнулся в больнице где ему пересадили несколько органов, после чего он понимает, что больше не может есть обычную пищу, ему нужна плоть... Человеческая плоть...
Студия:
Продолжительность: ТВ (12 эп.), 25 мин.
Перевод: Профессиональный (двухголосый)
Текст читают: Тимиркан Сиюхов & Маргарита Щелкунова
Субтитры: отсутствуют
Полухардсаб: надписи, логотип
Перевод на русский: Cafesubs (перевод: Anku; редактура: mutagenb)
Файл
Качество: HDTVRip [Leopard-Raws]
Формат: MP4
Видео: 1280 x 720 (16:9) at 23.976 fps, AVC (x264), High@L3.0, 2616 Kbps avg, 0.118 bit/pixel, 8 bit
Аудио: 48.0 kHz, AAC, 2 ch, 256 kbps avg
Релиз от: & Ani-mania
Общее
Полное имя : [Ani-Mania]_Tokyo_Ghoul_A_[rus]_[1280x720_x264]_[loster01_&_Emeri][Ani-Mania]_Tokyo_Ghoul_A_[01]_[rus]_[1280x720_x264]_[loster01_&_Emeri].mp4
Формат : MPEG-4
Профиль формата : Base Media
Идентификатор кодека : isom
Размер файла : 507 Мбайт
Продолжительность : 24 м.
Общий поток : 2876 Кбит/сек
Дата кодирования : UTC 2015-01-08 19:58:44
Дата пометки : UTC 2015-01-08 19:58:44
Программа кодирования : Yamb 2.1.0.0 [http://yamb.unite-video.com]
Видео
Идентификатор : 1
Формат : AVC
Формат/Информация : Advanced Video Codec
Профиль формата : High@L3.0
Параметр CABAC формата : Да
Параметр ReFrames формата : 4 кадры
Идентификатор кодека : avc1
Идентификатор кодека/Информация : Advanced Video Coding
Продолжительность : 24 м.
Вид битрейта : Переменный
Битрейт : 2616 Кбит/сек
Максимальный битрейт : 16,0 Мбит/сек
Ширина : 1280 пикс.
Высота : 720 пикс.
Соотношение сторон : 16:9
Режим частоты кадров : Постоянный
Частота кадров : 23,976 кадр/сек
Цветовое пространство : YUV
Подвыборка цветности : 4:2:0
Битовая глубина : 8 бит
Тип развёртки : Прогрессивная
Бит/(Пиксели*Кадры) : 0.118
Размер потока : 462 Мбайт (91%)
Библиотека кодирования : x264 core 130 r2273 b3065e6
Настройки программы : cabac=1 / ref=1 / deblock=1:1:1 / analyse=0x3:0x3 / me=dia / subme=1 / psy=1 / psy_rd=0.40:0.00 / mixed_ref=0 / me_range=16 / chroma_me=1 / trellis=0 / 8x8dct=1 / cqm=0 / deadzone=21,11 / fast_pskip=1 / chroma_qp_offset=0 / threads=12 / lookahead_threads=2 / sliced_threads=0 / nr=0 / decimate=1 / interlaced=0 / bluray_compat=0 / constrained_intra=0 / bframes=5 / b_pyramid=2 / b_adapt=1 / b_bias=0 / direct=1 / weightb=1 / open_gop=0 / weightp=1 / keyint=250 / keyint_min=23 / scenecut=40 / intra_refresh=0 / rc=crf / mbtree=0 / crf=19.0 / qcomp=0.60 / qpmin=0 / qpmax=69 / qpstep=4 / ip_ratio=1.40 / pb_ratio=1.30 / aq=1:0.60
Язык : Russian
Дата кодирования : UTC 2015-01-08 19:58:44
Дата пометки : UTC 2015-01-08 19:58:53
Аудио
Идентификатор : 2
Формат : AAC
Формат/Информация : Advanced Audio Codec
Профиль формата : LC
Идентификатор кодека : 40
Продолжительность : 24 м.
Вид битрейта : Переменный
Битрейт : 256 Кбит/сек
Максимальный битрейт : 262 Кбит/сек
Канал(ы) : 2 канала(ов)
Расположение каналов : Front: L R
Частота : 48,0 КГц
Метод сжатия : С потерями
Размер потока : 45,2 Мбайт (9%)
Язык : Russian
Дата кодирования : UTC 2015-01-08 19:58:52
Дата пометки : UTC 2015-01-08 19:58:53
01 - Крах





   Похожие торренты   Торрент   Размер 
В этой теме нет новых непрочитанных сообщений. Токийский гуль [ТВ-2] / Токийский монстр / Tokyo Ghoul A [TV-2] [01 из 12] (2015) HDTVRip 720p | P2

91 | 44

867.89 МБ

В этой теме нет новых непрочитанных сообщений. Токийский гуль [ТВ-2] / Токийский монстр / Tokyo Ghoul A [TV-2] [01-07 из 12] (2015) HDTVRip 720p | P2

36 | 15

2.9 ГБ

В этой теме нет новых непрочитанных сообщений. Токийский гуль [ТВ-2] / Токийский монстр / Tokyo Ghoul A [TV-2] [01 из 12] (2015) HDTVRip 720p | P2

81 | 5

507.32 МБ

В этой теме нет новых непрочитанных сообщений. Токийский гуль [ТВ-2] / Токийский монстр / Tokyo Ghoul A [TV-2] [01-08 из 12] (2015) HDTVRip 720p | P2

63 | 6

3.27 ГБ

В этой теме нет новых непрочитанных сообщений. Токийский гуль / Токийский монстр / Tokyo Ghoul [01-06 из 12] (2014) HDTVRip 720p

8 | 24

2.09 ГБ

В этой теме нет новых непрочитанных сообщений. Токийский гуль / Токийский монстр / Tokyo Ghoul [01-11 из 12] (2014) HDTVRip 720p | L1

6 | 5

3.83 ГБ

В этой теме нет новых непрочитанных сообщений. Токийский гуль / Токийский монстр / Tokyo Ghoul [01-08 из 12] (2014) HDTVRip 720p | L1

7 | 17

2.83 ГБ




Вы не можете начинать темы
Вы не можете отвечать на сообщения
Вы не можете редактировать свои сообщения
Вы не можете удалять свои сообщения
Вы не можете добавлять вложения

Перейти:  
Для Мосгорсуда, Роскомнадзора и рекламодателей: mosgorsud-torrent[собачка]yandex.ru
 Вход
ppkBB3cker v.2 © 2008-2014 @ PPK
[ Time : 0.023s | 17 Queries | GZIP : On ]

Торрент трекер RUTOR.IN, Не можете зайти на rutor.org? Какой новый адрес рутор? Какое зеркало рутор? Не работает rutor.org и зеркала? Тогда наш торрент специально для вас. Rutor.in неофициальное зеркало rutor. В случае если у Вас заблокирован rutor или вдруг Вы не можете на него зайти, то Вы без труда сможете скачать бесплатно и без рекламы последние новинки кино, игр, сериалов и прочего у нас, на Rutor.in. Не нужно использовать прокси, чтобы зайти на рутор, достаточно воспользоваться нашим ресурсом. Все новые фильмы, игры, сериалы, книги и музыка за 2013 и 2014 годы через торрент бесплатно. Скачивайте фильмы в хорошем качестве, игры для пк, xbox, playstation без регистрации. У нас вы найдете новые Зарубежные сериалы и Русские сериалы 2013, 2014, 2015 годов. Оставайтесь с нами, качайте любимые фильмы, игры, сериалы, книги и музыку.