img image001 image001 image001 image001 image001 image001 image001 image001 image001 image001 image001 image001 image001 image001 image001

Planets Sun Sun Sun
Статистика раздачи
Автор: Nickolas3434 | Размер: 1.02 ГБ | Добавлен: 02 фев 2015
Раздают: 10    Качают: 2
Скачать торрент
Скачать торрент
Описание торрента

СообщениеДобавлено: 02 фев 2015 

Информация о фильме
Название: Песнь проклятия для святого рыцаря
Оригинальное название: Seiken Tsukai no World Break / World Break: Aria of Curse for a Holy Swordsman / 聖剣使いの禁呪詠唱
Страна: Япония
Год выхода: 2015
Жанр: приключения, фэнтези
Режиссер: Инагаки Такаюки / Inagaki Takayuki / 稲垣隆行
Автор оригинала: Авамура Акамицу / Awamura Akamitsu / あわむら赤光
О фильме: События сериала разворачиваются в частной старшей школе, где учатся так называемые «спасители» - молодые люди, девушки и парни, которые обладают способностью помнить свои прошлые жизни.
Учащиеся этой школы делятся на две ветви: Сироганэ, сражающиеся с врагами посредством оружия и боевых техник, черпая силу «Пураана» из собственных тел, и Курома, со своим запасом сил - «Маана», использующие в битвах магию, превосходящую земную физику.
Новичок Мороха Хаимура, недавно поступивший в старшую школу, становится камнем преткновения, ведь он единственный человек, в прошлом бывший и Сироганэ, и Курома.

Студия:
Продолжительность: ТВ (>12 эп.), 25 мин.
Перевод: Любительский (одноголосый)
Озвучка: Kippei
Субтитры: отсутствуют
Полухардсаб: логотип
Перевод на русский: Esito [YakuSub Studio]
Файл
Качество: HDTVRip [Leopard-Raws]
Формат: MP4
Видео: 1280 x 720 (16:9) at 23.976 fps, AVC (x264), High@L3.0, 2975 Kbps avg, 0.135 bit/pixel, 8 bit
Аудио: 44.1 kHz, AAC, 2 ch, 128 kbps avg
Релиз от:
Общее
Полное имя : [LE-Production]_Seiken_Tsukai_No_World_Break_[rus]_[1280x720_x264]_[Kippei][LE-Production]_Seiken_Tsukai_No_World_Break_[01]_[rus]_[1280x720_x264]_[Kippei].mp4
Формат : MPEG-4
Профиль формата : Base Media
Идентификатор кодека : isom
Размер файла : 545 Мбайт
Продолжительность : 24 м.
Общий поток : 3106 Кбит/сек
Дата кодирования : UTC 2015-01-18 18:59:41
Дата пометки : UTC 2015-01-18 18:59:41
Программа кодирования : Yamb 2.1.0.0 [http://yamb.unite-video.com]
Правообладатель : LE-Production
Видео
Идентификатор : 1
Формат : AVC
Формат/Информация : Advanced Video Codec
Профиль формата : High@L3.0
Параметр CABAC формата : Да
Параметр ReFrames формата : 4 кадры
Идентификатор кодека : avc1
Идентификатор кодека/Информация : Advanced Video Coding
Продолжительность : 24 м.
Вид битрейта : Переменный
Битрейт : 2975 Кбит/сек
Максимальный битрейт : 11,2 Мбит/сек
Ширина : 1280 пикс.
Высота : 720 пикс.
Соотношение сторон : 16:9
Режим частоты кадров : Постоянный
Частота кадров : 23,976 кадр/сек
Цветовое пространство : YUV
Подвыборка цветности : 4:2:0
Битовая глубина : 8 бит
Тип развёртки : Прогрессивная
Бит/(Пиксели*Кадры) : 0.135
Размер потока : 522 Мбайт (96%)
Библиотека кодирования : x264 core 130 r2273 b3065e6
Настройки программы : cabac=1 / ref=1 / deblock=1:1:1 / analyse=0x3:0x3 / me=dia / subme=1 / psy=1 / psy_rd=0.40:0.00 / mixed_ref=0 / me_range=16 / chroma_me=1 / trellis=0 / 8x8dct=1 / cqm=0 / deadzone=21,11 / fast_pskip=1 / chroma_qp_offset=0 / threads=12 / lookahead_threads=2 / sliced_threads=0 / nr=0 / decimate=1 / interlaced=0 / bluray_compat=0 / constrained_intra=0 / bframes=5 / b_pyramid=2 / b_adapt=1 / b_bias=0 / direct=1 / weightb=1 / open_gop=0 / weightp=1 / keyint=250 / keyint_min=23 / scenecut=40 / intra_refresh=0 / rc=crf / mbtree=0 / crf=19.0 / qcomp=0.60 / qpmin=0 / qpmax=69 / qpstep=4 / ip_ratio=1.40 / pb_ratio=1.30 / aq=1:0.60
Язык : Russian
Дата кодирования : UTC 2015-01-18 18:59:41
Дата пометки : UTC 2015-01-18 18:59:49
Аудио
Идентификатор : 2
Формат : AAC
Формат/Информация : Advanced Audio Codec
Профиль формата : LC
Идентификатор кодека : 40
Продолжительность : 24 м.
Вид битрейта : Переменный
Битрейт : 128 Кбит/сек
Максимальный битрейт : 162 Кбит/сек
Канал(ы) : 2 канала(ов)
Расположение каналов : Front: L R
Частота : 44,1 КГц
Метод сжатия : С потерями
Размер потока : 22,4 Мбайт (4%)
Язык : Russian
Дата кодирования : UTC 2015-01-18 18:59:47
Дата пометки : UTC 2015-01-18 18:59:49
01. The Reincarnater
02. Imbue My Sword, Magic Flame!





   Похожие торренты   Торрент   Размер 
В этой теме нет новых непрочитанных сообщений. Песнь проклятия для святого рыцаря / Seiken Tsukai no World Break [TV] [01 из 12] (2015) HDTVRip 720p | LE-Production

2 | 2

544.82 МБ

В этой теме нет новых непрочитанных сообщений. Песнь проклятия для святого рыцаря / Seiken Tsukai no World Break [TV] [01 из 12] (2015) HDTVRip 720p | LE-Production

40 | 5

2.36 ГБ

В этой теме нет новых непрочитанных сообщений. Песнь проклятия для святого рыцаря / Seiken Tsukai no World Break [01 из 12] (2015) HDTVRip 720p

48 | 6

343.64 МБ

В этой теме нет новых непрочитанных сообщений. Песнь проклятия для святого рыцаря / Seiken Tsukai no World Break [01-02 из 12] (2015) HDTVRip 720p

24 | 8

687.21 МБ

В этой теме нет новых непрочитанных сообщений. Песнь проклятия для святого рыцаря / Seiken Tsukai no World Break [01-12 из 12] (2015) HDTVRip 720p

102 | 24

4.03 ГБ

В этой теме нет новых непрочитанных сообщений. Песнь проклятия для святого рыцаря / Seiken Tsukai no World Break [01-06 из 12] (2015) HDTVRip 720p

18 | 22

2.01 ГБ

В этой теме нет новых непрочитанных сообщений. Импульс мира / World Trigger [TV] [01 из 12] (2014) HDTVRip 720p | LE-Production

6 | 7

1.01 ГБ




Вы не можете начинать темы
Вы не можете отвечать на сообщения
Вы не можете редактировать свои сообщения
Вы не можете удалять свои сообщения
Вы не можете добавлять вложения

Перейти:  
Для Мосгорсуда, Роскомнадзора и рекламодателей: mosgorsud-torrent[собачка]yandex.ru
 Вход
ppkBB3cker v.2 © 2008-2014 @ PPK
[ Time : 0.040s | 17 Queries | GZIP : Off ]

Торрент трекер RUTOR.IN, Не можете зайти на rutor.org? Какой новый адрес рутор? Какое зеркало рутор? Не работает rutor.org и зеркала? Тогда наш торрент специально для вас. Rutor.in неофициальное зеркало rutor. В случае если у Вас заблокирован rutor или вдруг Вы не можете на него зайти, то Вы без труда сможете скачать бесплатно и без рекламы последние новинки кино, игр, сериалов и прочего у нас, на Rutor.in. Не нужно использовать прокси, чтобы зайти на рутор, достаточно воспользоваться нашим ресурсом. Все новые фильмы, игры, сериалы, книги и музыка за 2013 и 2014 годы через торрент бесплатно. Скачивайте фильмы в хорошем качестве, игры для пк, xbox, playstation без регистрации. У нас вы найдете новые Зарубежные сериалы и Русские сериалы 2013, 2014, 2015 годов. Оставайтесь с нами, качайте любимые фильмы, игры, сериалы, книги и музыку.