img image001 image001 image001 image001 image001 image001 image001 image001 image001 image001 image001 image001 image001 image001 image001

Planets Sun Sun Sun
Статистика раздачи
Автор: Nickolas3434 | Размер: 4.86 ГБ | Добавлен: 02 фев 2015
Раздают: 123    Качают: 17
Скачать торрент
Скачать торрент
Описание торрента

СообщениеДобавлено: 02 фев 2015 

Информация о фильме
Название: Ходячий замок
Оригинальное название: Howl's Moving Castle / Hauru no Ugoku Shiro
Год выхода: 2004
Жанр: Сказка, приключения, романтика, драма
Режиссер: Хаяо Миядзаки
В ролях: Тиэко Байсё, Такуя Кимура, Акихиро Мива, Тацуя Гасюин, Рюноскэ Камики, Мицунори Исаки, Ё Ойдзуми, Акио Ютсука, Дайдзиро Харада, Харуко Като
О фильме: Действие фильма происходит в сказочном мире, напоминающем Европу 19-го века, где магия идёт рука об руку с техническим прогрессом. Скромная жизнь рано осиротевшей шляпницы Софи полностью изменилась, когда в окрестностях её города появился шагающий замок таинственного волшебника Хаула, известного своими "похищениями" девичьих сердец. Спасённая этим голубоглазым красавцем от приставаний двух солдафонов, она полюбила его с первого взгляда, однако волнующая прогулка с ним стоила юной шляпнице её красоты и молодости, отнятых чарами ревнивой Ведьмы из Пустоши. Шокирующее превращение из восемнадцатилетней девушки в дряхлую старуху заставило Софи покинуть родной дом и отправиться на поиски заколдовавшей её Ведьмы, чтобы та вернула ей нормальный вид. Попав по дороге внутрь шагающего замка Хаула, девушка-старушка осталась жить с хозяином и другими обитателями этого гигантского сооружения на курьих ножках, обретя в них семью, а взамен подарив им тепло и мудрость своего любящего сердца...

Страна: Япония
Студия: Studio Ghibli
Продолжительность: 01:59:10
Перевод: Дублированный, профессиональный многоголосый, профессиональный двухголосый, авторский одноголосый, любительский одноголосый, украинский
Файл
Кодек: MPEG-4 AVC
Качество: BDRip-AVC
Видео: 2800 Кбит/с, 1024х552, 23.976 кадр/с
Звук:
Аудио #1: Русский (AC3, 2 ch, 224 Кбит/с) / Дублированный (Первый канал)
Аудио #2: Русский (AC3, 6 ch, 384 Кбит/с) / Профессиональный многоголосый (CP Digital)
Аудио #3: Русский (AC3, 1 ch, 192 Кбит/с) / Профессиональный многоголосый (Disney)
Аудио #4: Русский (AC3, 6 ch, 384 Кбит/с) / Профессиональный двухголосый (Пётр Гланц и Инна Королева)
Аудио #5: Русский (AC3, 6 ch, 448 Кбит/с) / Авторский одноголосый (Андрей Гаврилов)
Аудио #6: Русский (AC3, 6 ch, 448 Кбит/с) / Любительский одноголосый (Евгения Лурье)
Аудио #7: Украинский (AC3, 2 ch, 192 Кбит/с) / Дублированный (1+1)
Аудио #8: Английский (AC3, 6 ch, 384 Кбит/с) / Дублированный
Аудио #9: Японский (AC3, 6 ch, 384 Кбит/с)
Субтитры: Русские (Первый канал, CP Digital, Анна Панина, ISA, OutSun, obaka-san), украинские, английские
Семпл
Общее
Уникальный идентификатор : 197349558968443394782681289503184439768 (0x9478247BB99ADD1C8D32968FDB3AC9D8)
Полное имя : H:1FilmsHРелизыHodjachij.zamok.2004.x264.BDRip.AVC.MediaClub.mkv
Формат : Matroska
Версия формата : Version 4 / Version 2
Размер файла : 4,86 Гбайт
Продолжительность : 1 ч. 59 м.
Общий поток : 5843 Кбит/сек
Название фильма : -= MediaClub =- rip by Lefevr
Дата кодирования : UTC 2015-01-29 20:00:21
Программа кодирования : mkvmerge v6.1.0 ('Old Devil') built on Mar 4 2013 09:10:42
Библиотека кодирования : libebml v1.3.0 + libmatroska v1.4.0
Видео
Идентификатор : 1
Формат : AVC
Формат/Информация : Advanced Video Codec
Профиль формата : High@L4.1
Параметр CABAC формата : Да
Параметр ReFrames формата : 8 кадров
Идентификатор кодека : V_MPEG4/ISO/AVC
Продолжительность : 1 ч. 59 м.
Битрейт : 2800 Кбит/сек
Ширина : 1024 пикселя
Высота : 552 пикселя
Соотношение сторон : 1,85:1
Режим частоты кадров : Постоянный
Частота кадров : 23,976 кадра/сек
Цветовое пространство : YUV
Субдискретизация насыщенности : 4:2:0
Битовая глубина : 8 бит
Тип развёртки : Прогрессивная
Бит/(Пиксели*Кадры) : 0.207
Размер потока : 2,24 Гбайт (46%)
Заголовок : Hodjachij.zamok.2004.x264.BDRip.AVC.MediaClub.mkv
Библиотека кодирования : x264 core 130 r2273 b3065e6
Настройки программы : cabac=1 / ref=8 / deblock=1:-2:-2 / analyse=0x3:0x133 / me=umh / subme=11 / psy=1 / psy_rd=1.00:0.05 / mixed_ref=1 / me_range=32 / chroma_me=1 / trellis=2 / 8x8dct=1 / cqm=0 / deadzone=21,11 / fast_pskip=0 / chroma_qp_offset=-3 / threads=6 / lookahead_threads=1 / sliced_threads=0 / nr=0 / decimate=0 / interlaced=0 / bluray_compat=0 / constrained_intra=0 / bframes=9 / b_pyramid=2 / b_adapt=2 / b_bias=0 / direct=3 / weightb=1 / open_gop=0 / weightp=2 / keyint=240 / keyint_min=23 / scenecut=40 / intra_refresh=0 / rc_lookahead=60 / rc=2pass / mbtree=1 / bitrate=2800 / ratetol=1.0 / qcomp=0.60 / qpmin=0 / qpmax=69 / qpstep=4 / cplxblur=20.0 / qblur=0.5 / ip_ratio=1.40 / aq=1:0.80
Язык : Japanese
Default : Да
Forced : Да
Аудио #1
Идентификатор : 2
Формат : AC-3
Формат/Информация : Audio Coding 3
Расширение режима : CM (complete main)
Параметр Endianness формата : Big
Идентификатор кодека : A_AC3
Продолжительность : 1 ч. 59 м.
Вид битрейта : Постоянный
Битрейт : 224 Кбит/сек
Каналы : 2 канала
Расположение каналов : Front: L R
Частота : 48,0 КГц
Битовая глубина : 16 бит
Метод сжатия : С потерями
Размер потока : 191 Мбайт (4%)
Заголовок : TRACK_01_DUB_RUS_OPT
Язык : Russian
Default : Да
Forced : Да
Аудио #2
Идентификатор : 3
Формат : AC-3
Формат/Информация : Audio Coding 3
Расширение режима : CM (complete main)
Параметр Endianness формата : Big
Идентификатор кодека : A_AC3
Продолжительность : 1 ч. 59 м.
Вид битрейта : Постоянный
Битрейт : 384 Кбит/сек
Каналы : 6 каналов
Расположение каналов : Front: L C R, Side: L R, LFE
Частота : 48,0 КГц
Битовая глубина : 16 бит
Метод сжатия : С потерями
Размер потока : 327 Мбайт (7%)
Заголовок : TRACK_02_MVO_RUS_CP Digital
Язык : Russian
Default : Нет
Forced : Нет
Аудио #3
Идентификатор : 4
Формат : AC-3
Формат/Информация : Audio Coding 3
Расширение режима : CM (complete main)
Параметр Endianness формата : Big
Идентификатор кодека : A_AC3
Продолжительность : 1 ч. 59 м.
Вид битрейта : Постоянный
Битрейт : 192 Кбит/сек
Каналы : 1 канал
Расположение каналов : Front: C
Частота : 48,0 КГц
Битовая глубина : 16 бит
Метод сжатия : С потерями
Размер потока : 164 Мбайт (3%)
Заголовок : TRACK_03_MVO_RUS_Disney
Язык : Russian
Default : Нет
Forced : Нет
Аудио #4
Идентификатор : 5
Формат : AC-3
Формат/Информация : Audio Coding 3
Расширение режима : CM (complete main)
Параметр Endianness формата : Big
Идентификатор кодека : A_AC3
Продолжительность : 1 ч. 59 м.
Вид битрейта : Постоянный
Битрейт : 384 Кбит/сек
Каналы : 6 каналов
Расположение каналов : Front: L C R, Side: L R, LFE
Частота : 48,0 КГц
Битовая глубина : 16 бит
Метод сжатия : С потерями
Размер потока : 327 Мбайт (7%)
Заголовок : TRACK_04_DVO_RUS_П.Гланц и И.Королева
Язык : Russian
Default : Нет
Forced : Нет
Аудио #5
Идентификатор : 6
Формат : AC-3
Формат/Информация : Audio Coding 3
Расширение режима : CM (complete main)
Параметр Endianness формата : Big
Идентификатор кодека : A_AC3
Продолжительность : 1 ч. 59 м.
Вид битрейта : Постоянный
Битрейт : 448 Кбит/сек
Каналы : 6 каналов
Расположение каналов : Front: L C R, Side: L R, LFE
Частота : 48,0 КГц
Битовая глубина : 16 бит
Метод сжатия : С потерями
Размер потока : 382 Мбайт (8%)
Заголовок : TRACK_05_AVO_RUS_А.Гаврилов
Язык : Russian
Default : Нет
Forced : Нет
Аудио #6
Идентификатор : 7
Формат : AC-3
Формат/Информация : Audio Coding 3
Расширение режима : CM (complete main)
Параметр Endianness формата : Big
Идентификатор кодека : A_AC3
Продолжительность : 1 ч. 59 м.
Вид битрейта : Постоянный
Битрейт : 448 Кбит/сек
Каналы : 6 каналов
Расположение каналов : Front: L C R, Side: L R, LFE
Частота : 48,0 КГц
Битовая глубина : 16 бит
Метод сжатия : С потерями
Размер потока : 382 Мбайт (8%)
Заголовок : TRACK_06_VO_RUS_Е.Лурье
Язык : Russian
Default : Нет
Forced : Нет
Аудио #7
Идентификатор : 8
Формат : AC-3
Формат/Информация : Audio Coding 3
Расширение режима : CM (complete main)
Параметр Endianness формата : Big
Идентификатор кодека : A_AC3
Продолжительность : 1 ч. 59 м.
Вид битрейта : Постоянный
Битрейт : 192 Кбит/сек
Каналы : 2 канала
Расположение каналов : Front: L R
Частота : 44,1 КГц
Битовая глубина : 16 бит
Метод сжатия : С потерями
Размер потока : 164 Мбайт (3%)
Заголовок : TRACK_07_DUB_UKR_1+1
Язык : Ukrainian
Default : Нет
Forced : Нет
Аудио #8
Идентификатор : 9
Формат : AC-3
Формат/Информация : Audio Coding 3
Расширение режима : CM (complete main)
Параметр Endianness формата : Big
Идентификатор кодека : A_AC3
Продолжительность : 1 ч. 59 м.
Вид битрейта : Постоянный
Битрейт : 384 Кбит/сек
Каналы : 6 каналов
Расположение каналов : Front: L C R, Side: L R, LFE
Частота : 48,0 КГц
Битовая глубина : 16 бит
Метод сжатия : С потерями
Размер потока : 327 Мбайт (7%)
Заголовок : TRACK_08_DUB_ENG
Язык : English
Default : Нет
Forced : Нет
Аудио #9
Идентификатор : 10
Формат : AC-3
Формат/Информация : Audio Coding 3
Расширение режима : CM (complete main)
Параметр Endianness формата : Big
Идентификатор кодека : A_AC3
Продолжительность : 1 ч. 59 м.
Вид битрейта : Постоянный
Битрейт : 384 Кбит/сек
Каналы : 6 каналов
Расположение каналов : Front: L C R, Side: L R, LFE
Частота : 48,0 КГц
Битовая глубина : 16 бит
Метод сжатия : С потерями
Размер потока : 327 Мбайт (7%)
Заголовок : TRACK_09_ORIGINAL_JPN
Язык : Japanese
Default : Нет
Forced : Нет
Текст #1
Идентификатор : 11
Формат : UTF-8
Идентификатор кодека : S_TEXT/UTF8
Идентификатор кодека/Информация : UTF-8 Plain Text
Заголовок : TEXT_01_SUB_RUS_OPT.srt
Язык : Russian
Default : Нет
Forced : Нет
Текст #2
Идентификатор : 12
Формат : UTF-8
Идентификатор кодека : S_TEXT/UTF8
Идентификатор кодека/Информация : UTF-8 Plain Text
Заголовок : TEXT_02_SUB_RUS_CP Digital.srt
Язык : Russian
Default : Нет
Forced : Нет
Текст #3
Идентификатор : 13
Формат : UTF-8
Идентификатор кодека : S_TEXT/UTF8
Идентификатор кодека/Информация : UTF-8 Plain Text
Заголовок : TEXT_03_SUB_RUS_Анна Панина.srt
Язык : Russian
Default : Нет
Forced : Нет
Текст #4
Идентификатор : 14
Формат : UTF-8
Идентификатор кодека : S_TEXT/UTF8
Идентификатор кодека/Информация : UTF-8 Plain Text
Заголовок : TEXT_04_SUB_RUS_ISA.srt
Язык : Russian
Default : Нет
Forced : Нет
Текст #5
Идентификатор : 15
Формат : UTF-8
Идентификатор кодека : S_TEXT/UTF8
Идентификатор кодека/Информация : UTF-8 Plain Text
Заголовок : TEXT_05_SUB_RUS_OutSun.srt
Язык : Russian
Default : Нет
Forced : Нет
Текст #6
Идентификатор : 16
Формат : UTF-8
Идентификатор кодека : S_TEXT/UTF8
Идентификатор кодека/Информация : UTF-8 Plain Text
Заголовок : TEXT_06_SUB_RUS_obaka-san.srt
Язык : Russian
Default : Нет
Forced : Нет
Текст #7
Идентификатор : 17
Формат : UTF-8
Идентификатор кодека : S_TEXT/UTF8
Идентификатор кодека/Информация : UTF-8 Plain Text
Заголовок : TEXT_07_SUB_UKR.srt
Язык : Ukrainian
Default : Нет
Forced : Нет
Текст #8
Идентификатор : 18
Формат : UTF-8
Идентификатор кодека : S_TEXT/UTF8
Идентификатор кодека/Информация : UTF-8 Plain Text
Заголовок : TEXT_08_SUB_ENG.srt
Язык : English
Default : Да
Forced : Нет
Меню
00:00:00.000 : en:Beginning Credits
00:01:04.273 : en:A Moving Castle
00:04:58.632 : en:Being Followed
00:12:22.825 : en:An Old Curse
00:18:23.269 : en:Staying at the Castle
00:23:16.770 : en:Howl's Summons
00:28:51.939 : en:Cooking Breakfast
00:33:13.783 : en:Yesterday's Filth
00:40:10.241 : en:Night Flight
00:45:30.394 : en:Drama Queen
00:49:15.870 : en:Reporting to the Palace
00:55:26.365 : en:A Long Climb
00:58:32.509 : en:Looking for Suliman
01:04:51.221 : en:Instant Escape
01:10:53.708 : en:Loving the Beast
01:15:24.353 : en:Is It Time to Move?
01:20:25.487 : en:The New Home
01:25:19.489 : en:Hiding the Love
01:32:30.879 : en:Bombing Raid
01:38:35.576 : en:Collapse
01:44:22.423 : en:Finding Howl
01:48:20.786 : en:Aftermath
01:52:19.483 : en:Young Prince
01:54:39.039 : en:End Credits
...last pass...
x264.exe: --pass 2 --bitrate 2800 --preset veryslow --profile high --level 4.1 --ref 8 --aq-strength 0.8 --deblock -2:-2 --merange 32 --bframes 9 --no-fast-pskip --no-dct-decimate --psy-rd 1.00:0.05 --subme 11 --keyint 240 --sar 1:1 --stats "E:1Films EРелизы2004 Howl's Moving CastleW11111.log" --output "E:1Films EРелизы2004 Howl's Moving CastleW11111.mkv" "F:Temp\0103.avs"
avs [info]: 1024x552p 1:1 @ 2500000/104271 fps (cfr)
x264 [info]: using SAR=1/1
x264 [info]: using cpu capabilities: MMX2 SSE2Fast SSSE3 SSE4.2 AVX
x264 [info]: profile High, level 4.1
x264 [info]: frame I:1365 Avg QP:12.04 size:177923
x264 [info]: frame P:41961 Avg QP:16.15 size: 36184
x264 [info]: frame B:128081 Avg QP:21.05 size: 5783
x264 [info]: consecutive B-frames: 3.2% 5.6% 7.2% 33.7% 15.9% 20.1% 7.6% 4.7% 0.9% 1.0%
x264 [info]: mb I I16..4: 11.0% 36.4% 52.6%
x264 [info]: mb P I16..4: 0.4% 3.4% 2.2% P16..4: 30.5% 27.8% 17.7% 5.5% 1.8% skip:10.8%
x264 [info]: mb B I16..4: 0.0% 0.3% 0.2% B16..8: 30.8% 12.5% 2.9% direct: 2.7% skip:50.7% L0:49.1% L1:41.7% BI: 9.2%
x264 [info]: 8x8 transform intra:50.8% inter:34.6%
x264 [info]: direct mvs spatial:96.6% temporal:3.4%
x264 [info]: coded y,uvDC,uvAC intra: 89.8% 79.8% 69.5% inter: 17.2% 12.5% 9.6%
x264 [info]: i16 v,h,dc,p: 26% 14% 25% 35%
x264 [info]: i8 v,h,dc,ddl,ddr,vr,hd,vl,hu: 11% 9% 13% 10% 11% 10% 11% 11% 13%
x264 [info]: i4 v,h,dc,ddl,ddr,vr,hd,vl,hu: 14% 10% 6% 10% 12% 11% 12% 11% 13%
x264 [info]: i8c dc,h,v,p: 44% 27% 17% 13%
x264 [info]: Weighted P-Frames: Y:2.4% UV:1.3%
x264 [info]: ref P L0: 45.5% 5.3% 14.8% 9.5% 7.0% 7.0% 5.5% 4.6% 0.7% 0.0%
x264 [info]: ref B L0: 64.8% 11.7% 8.9% 5.2% 4.8% 2.9% 1.7%
x264 [info]: ref B L1: 91.0% 9.0%
x264 [info]: kb/s:2799.65


Релиз от: | Автор рипа:



   Похожие торренты   Торрент   Размер 
В этой теме нет новых непрочитанных сообщений. Ходячий замок / Howl's Moving Castle / Hauru no Ugoku Shiro (2004) BDRip-AVC | iPhone | D, P

132 | 29

1.82 ГБ

В этой теме нет новых непрочитанных сообщений. Ходячий замок / Hauru no ugoku shiro / Howl's Moving Castle (2004) HDTVRip от HQ-ViDEO

81 | 4

2.18 ГБ

В этой теме нет новых непрочитанных сообщений. Ходячий замок / Howl's Moving Castle / Hauru no Ugoku Shiro (2004) HDRip от Scarabey

1179 | 34

1.45 ГБ

В этой теме нет новых непрочитанных сообщений. Ходячий замок / Howl's Moving Castle / Hauru no Ugoku Shiro (2004) HDRip от Scarabey

61 | 16

748.34 МБ

В этой теме нет новых непрочитанных сообщений. Ходячий замок / Hauru no ugoku shiro (2004) BDRip 1080p

12 | 0

4.37 ГБ

В этой теме нет новых непрочитанных сообщений. Ходячий замок / Hauru no ugoku shiro (2004) BDRip 720p от leonardo 59 & Scarabey

689 | 26

3.41 ГБ

В этой теме нет новых непрочитанных сообщений. Шагающий замок Хаула (Ходячий замок) / Howl's Moving Castle (2004) HDTV 720p

545 | 32

3.24 ГБ




Вы не можете начинать темы
Вы не можете отвечать на сообщения
Вы не можете редактировать свои сообщения
Вы не можете удалять свои сообщения
Вы не можете добавлять вложения

Перейти:  
Для Мосгорсуда, Роскомнадзора и рекламодателей: mosgorsud-torrent[собачка]yandex.ru
 Вход
ppkBB3cker v.2 © 2008-2014 @ PPK
[ Time : 0.042s | 14 Queries | GZIP : Off ]

Торрент трекер RUTOR.IN, Не можете зайти на rutor.org? Какой новый адрес рутор? Какое зеркало рутор? Не работает rutor.org и зеркала? Тогда наш торрент специально для вас. Rutor.in неофициальное зеркало rutor. В случае если у Вас заблокирован rutor или вдруг Вы не можете на него зайти, то Вы без труда сможете скачать бесплатно и без рекламы последние новинки кино, игр, сериалов и прочего у нас, на Rutor.in. Не нужно использовать прокси, чтобы зайти на рутор, достаточно воспользоваться нашим ресурсом. Все новые фильмы, игры, сериалы, книги и музыка за 2013 и 2014 годы через торрент бесплатно. Скачивайте фильмы в хорошем качестве, игры для пк, xbox, playstation без регистрации. У нас вы найдете новые Зарубежные сериалы и Русские сериалы 2013, 2014, 2015 годов. Оставайтесь с нами, качайте любимые фильмы, игры, сериалы, книги и музыку.