img image001 image001 image001 image001 image001 image001 image001 image001 image001 image001 image001 image001 image001 image001 image001

Planets Sun Sun Sun
Статистика раздачи
Автор: Nickolas3434 | Размер: 771.6 МБ | Добавлен: 03 фев 2015
Раздают: 7457    Качают: 822
Скачать торрент
Скачать торрент
Описание торрента

СообщениеДобавлено: 03 фев 2015 


Название: Наруто 10 фильм: Последний
Оригинальное название: The Last: Naruto the Movie (2014)
Год выхода: 2014
Жанр: приключения, боевые искусства, сёнэн
Режиссер: Кобаяси Цунэо
Cпустя несколько лет после событий в 699 главе манги "Наруто" происходят события в фильме... Хината влюбленна в Наруто, только вот сам Наруто этого не понимает. В один из вечеров появляется странный парень, который называет себя Тонери, при этом называя Хинату "Принцессой Бьякугана" и предлагает выйти замуж за него, а его подчиненные похищают сестру Хинаты - Ханаби... В это же время, всей Земле угрожает опасность, т.к. Луна начинает рассыпаться, а ее куски падать на Землю, разрушая все вокруг. Как же эти события связаны, и связаны ли они вообще? А также, чем же в итоге закончится история Наруто и его долгий-долгий путь ниндзя? - узнаете, посмотрев ПОСЛЕДНИЙ фильм!
D:Игры10th naruto movie the last camrip.mkv
General
Unique ID : 196551847434422114779360840906125878178 (0x93DE8244A3C286A484EC6978649C23A2)
Complete name : D:Игры10th naruto movie the last camrip.mkv
Format : Matroska
Format version : Version 4 / Version 2
File size : 772 MiB
Duration : 1h 51mn
Overall bit rate : 968 Kbps
Encoded date : UTC 2015-01-29 21:26:31
Writing application : mkvmerge v7.1.0 ('Good Love') 64bit built on Jul 27 2014 13:06:55
Writing library : libebml v1.3.0 + libmatroska v1.4.1
DURATION : 01:51:26.088000000
NUMBER_OF_FRAMES : 278587
NUMBER_OF_BYTES : 267443520
_STATISTICS_WRITING_APP : mkvmerge v7.1.0 ('Good Love') 64bit built on Jul 27 2014 13:06:55
_STATISTICS_WRITING_DATE_UTC : 2015-01-29 21:26:31
_STATISTICS_TAGS : BPS DURATION NUMBER_OF_FRAMES NUMBER_OF_BYTES
Video #1
ID : 1
Format : AVC
Format/Info : Advanced Video Codec
Format profile : Baseline@L3.0
Format settings, CABAC : No
Format settings, ReFrames : 3 frames
Codec ID : V_MPEG4/ISO/AVC
Duration : 1h 51mn
Bit rate : 660 Kbps
Width : 640 pixels
Height : 480 pixels
Display aspect ratio : 4:3
Frame rate mode : Constant
Frame rate : 25.000 fps
Color space : YUV
Chroma subsampling : 4:2:0
Bit depth : 8 bits
Scan type : Progressive
Bits/(Pixel*Frame) : 0.086
Stream size : 501 MiB (65%)
Writing library : x264 core 142
Encoding settings : cabac=0 / ref=3 / deblock=1:0:0 / analyse=0x1:0x111 / me=hex / subme=7 / psy=1 / psy_rd=1.00:0.00 / mixed_ref=1 / me_range=16 / chroma_me=1 / trellis=1 / 8x8dct=0 / cqm=0 / deadzone=21,11 / fast_pskip=1 / chroma_qp_offset=-2 / threads=8 / lookahead_threads=1 / sliced_threads=0 / nr=0 / decimate=1 / interlaced=0 / bluray_compat=0 / constrained_intra=0 / bframes=0 / weightp=0 / keyint=250 / keyint_min=25 / scenecut=40 / intra_refresh=0 / rc_lookahead=40 / rc=2pass / mbtree=1 / bitrate=660 / ratetol=1.0 / qcomp=0.60 / qpmin=0 / qpmax=69 / qpstep=4 / cplxblur=20.0 / qblur=0.5 / ip_ratio=1.40 / aq=1:1.00
Default : Yes
Forced : No
Audio #2
ID : 2
Format : MPEG Audio
Format version : Version 1
Format profile : Layer 3
Mode : Joint stereo
Codec ID : A_MPEG/L3
Codec ID/Hint : MP3
Duration : 1h 51mn
Bit rate mode : Constant
Bit rate : 320 Kbps
Channel(s) : 2 channels
Sampling rate : 48.0 KHz
Compression mode : Lossy
Stream size : 255 MiB (33%)
Default : Yes
Forced : No

Страна: Япония
Продолжительность: 111 мин
Кодек: MKV
Качество: СamRip
Видео: 640x480, 25.00 fps, ~ 968 Кбит/сек
Звук: : MP3, 48.0Hz, 320 Кбит/сек
Семпл: http://multi-up.com/1030793
Переводчики: Overlord
Озвучивание: Любительский одноголосый закадровый Overlord
Тайминг и Работа со звуком: Overlord



   Похожие торренты   Торрент   Размер 
В этой теме нет новых непрочитанных сообщений. Наруто: Последний фильм / The Last: Naruto the Movie (2014) WEB-DLRip | iTunes

2867 | 231

1.46 ГБ

В этой теме нет новых непрочитанных сообщений. Наруто: Последний фильм / The Last: Naruto the Movie (2014) WEB-DL 1080p | iTunes

1391 | 87

4.18 ГБ

В этой теме нет новых непрочитанных сообщений. Наруто: Последний фильм / The Last: Naruto the Movie (2014) WEB-DL 1080p | iTunes

3566 | 267

4.18 ГБ

В этой теме нет новых непрочитанных сообщений. Наруто 10 фильм: Последний / The Last: Naruto the Movie (2014) HDTVRip 720p | RainDeath

3071 | 352

681.81 МБ

В этой теме нет новых непрочитанных сообщений. Наруто: Последний фильм / The Last: Naruto the Movie (2014) HDRip-AVC от ExKinoRay | iTunes

240 | 17

1.55 ГБ

В этой теме нет новых непрочитанных сообщений. Боруто: Фильм Наруто / Boruto: Naruto the Movie (Ямасита Хироюки) [Movie] [RAW] [RUS] [2015, приключения, HDTVRip] [720p] / Наруто

554 | 60

2.35 ГБ

В этой теме нет новых непрочитанных сообщений. Наруто (фильм пятый) - Ураганные хроники: Узы / Naruto the Movie 5: Naruto Shippuden - Bonds (2008) HDTVRip

49 | 16

1.72 ГБ




Вы не можете начинать темы
Вы не можете отвечать на сообщения
Вы не можете редактировать свои сообщения
Вы не можете удалять свои сообщения
Вы не можете добавлять вложения

Перейти:  
Для Мосгорсуда, Роскомнадзора и рекламодателей: mosgorsud-torrent[собачка]yandex.ru
 Вход
ppkBB3cker v.2 © 2008-2014 @ PPK
[ Time : 0.064s | 14 Queries | GZIP : Off ]

Торрент трекер RUTOR.IN, Не можете зайти на rutor.org? Какой новый адрес рутор? Какое зеркало рутор? Не работает rutor.org и зеркала? Тогда наш торрент специально для вас. Rutor.in неофициальное зеркало rutor. В случае если у Вас заблокирован rutor или вдруг Вы не можете на него зайти, то Вы без труда сможете скачать бесплатно и без рекламы последние новинки кино, игр, сериалов и прочего у нас, на Rutor.in. Не нужно использовать прокси, чтобы зайти на рутор, достаточно воспользоваться нашим ресурсом. Все новые фильмы, игры, сериалы, книги и музыка за 2013 и 2014 годы через торрент бесплатно. Скачивайте фильмы в хорошем качестве, игры для пк, xbox, playstation без регистрации. У нас вы найдете новые Зарубежные сериалы и Русские сериалы 2013, 2014, 2015 годов. Оставайтесь с нами, качайте любимые фильмы, игры, сериалы, книги и музыку.