img image001 image001 image001 image001 image001 image001 image001 image001 image001 image001 image001 image001 image001 image001 image001

Planets Sun Sun Sun
Статистика раздачи
Автор: Nickolas3434 | Размер: 7.75 ГБ | Добавлен: 06 фев 2015
Раздают: 25    Качают: 9
Скачать торрент
Скачать торрент
Описание торрента

СообщениеДобавлено: 06 фев 2015 


#77
Информация о фильме
    Русское название: Трансформеры: Фильм
    Оригинальное название: Transformers: The Movie
    Год выхода: 1986
    Жанр: аниме, мультфильм, фантастика, боевик, приключения, семейный
    Режиссер: Нельсон Шин
    Выпущено: США, Япония
    Продолжительность: 01:25:00
    Перевод: Любительский (Многоголосый закадровый)


Сюжет фильма
    Год 2005. Через двадцать один год после того, как доблестные Автоботы и коварные Десептиконы возобновили свою бесконечную войну на планете Земля, Десептиконам удалось завоевать планету Автоботов Кибертрон. Уцелевшие защитники Кибертрона, обосновавшись на двух его спутниках, пытаются отбить родную планету. Внезапное нападение захватчиков вылилось в жуткое побоище возле Автобот-Сити. В разгар битвы вождь Автоботов Оптимус Прайм пал в бою с предводителем Десептиконов Мегатроном, после чего Матрица Лидерства Автобота переходит к его помощнику Ультра Магнусу. Тем временем сподвижники Мегатрона, получившего тяжкие увечья, выбрасывают уже малопригодного вождя в глубоком космосе, где тот встречает робота-"поедателя планет" Юникрона. Оба заключают союз с целью уничтожения Матрицы Лидерства Автобота (единственного, что способно привести к гибели Юникрона), в результате чего с помощью гиганта Мегатрон перерождается в нового лидера Десептиконов - Гальватрона. Перед лицом растущей власти Гальватрона и надвигающимся появлением Юникрона на орбите Кибертрона Автоботы должны действовать быстро и защитить Матрицу либо полностью погибнуть.


Файл
    Качество: BDRip 1080p (исходник Blu-ray Disc Remux)
    Видео: 1920x1080, 12234 Кбит/сек, 23,976 кадр/сек, AVC, x264, High@L4.1, 16:9, 0.246 Бит/[Пиксели*Кадры]
    Аудио 1: AC-3, 192 Кбит/сек, 2 канала(ов), 48,0 КГц - Многоголосый закадровый, RG Evolution / Русский
    Аудио 2: AC-3, 640 Кбит/сек, 6 канала(ов), 48,0 КГц - Оригинал / Английский
    Субтитры: Русские | Полные, Английские | Полные
    Форсированные субтитры: Нет
    Чаптеры (Главы): Нет



Автор Рипа: Сообщество:



Format : Matroska
Format version : Version 2
File size : 7.75 GiB
Duration : 1h 25mn
Overall bit rate : 13.1 Mbps
Movie name : Трансформеры - Фильм.(1986).BDRip.1080p.[envy]
Encoded date : UTC 2015-02-05 08:28:59
Writing application : mkvmerge v5.8.0 ('No Sleep / Pillow') built on Sep 2 2012 15:37:04
Writing library : libebml v1.2.3 + libmatroska v1.3.0
Video
ID : 1
Format : AVC
Format/Info : Advanced Video Codec
Format profile : High@L4.1
Format settings, CABAC : Yes
Format settings, ReFrames : 4 frames
Codec ID : V_MPEG4/ISO/AVC
Duration : 1h 25mn
Bit rate : 12.2 Mbps
Width : 1 920 pixels
Height : 1 080 pixels
Display aspect ratio : 16:9
Frame rate mode : Constant
Frame rate : 23.976 fps
Color space : YUV
Chroma subsampling : 4:2:0
Bit depth : 8 bits
Scan type : Progressive
Bits/(Pixel*Frame) : 0.246
Stream size : 7.10 GiB (92%)
Title : Трансформеры - Фильм.(1986).BDRip.1080p.[envy]
Writing library : x264 core 144 r2525 40bb568
Encoding settings : cabac=1 / ref=4 / deblock=1:-1:-1 / analyse=0x3:0x133 / me=umh / subme=11 / psy=1 / psy_rd=1.00:0.00 / mixed_ref=1 / me_range=48 / chroma_me=1 / trellis=2 / 8x8dct=1 / cqm=0 / deadzone=21,11 / fast_pskip=0 / chroma_qp_offset=-2 / threads=12 / lookahead_threads=2 / sliced_threads=0 / nr=0 / decimate=1 / interlaced=0 / bluray_compat=0 / constrained_intra=0 / bframes=8 / b_pyramid=2 / b_adapt=2 / b_bias=0 / direct=3 / weightb=1 / open_gop=0 / weightp=2 / keyint=240 / keyint_min=23 / scenecut=40 / intra_refresh=0 / rc=2pass / mbtree=0 / bitrate=12234 / ratetol=2.0 / qcomp=0.60 / qpmin=0 / qpmax=69 / qpstep=4 / cplxblur=20.0 / qblur=0.5 / ip_ratio=1.40 / pb_ratio=1.30 / aq=2:1.00
Language : English
Default : Yes
Forced : No
Audio #1
ID : 2
Format : AC-3
Format/Info : Audio Coding 3
Mode extension : CM (complete main)
Format settings, Endianness : Big
Codec ID : A_AC3
Duration : 1h 25mn
Bit rate mode : Constant
Bit rate : 192 Kbps
Channel(s) : 2 channels
Channel positions : Front: L R
Sampling rate : 44.1 KHz
Bit depth : 16 bits
Compression mode : Lossy
Stream size : 117 MiB (1%)
Title : MVO [RG Evolution]
Language : Russian
Default : Yes
Forced : No
Audio #2
ID : 3
Format : AC-3
Format/Info : Audio Coding 3
Mode extension : CM (complete main)
Format settings, Endianness : Big
Codec ID : A_AC3
Duration : 1h 25mn
Bit rate mode : Constant
Bit rate : 640 Kbps
Channel(s) : 6 channels
Channel positions : Front: L C R, Side: L R, LFE
Sampling rate : 48.0 KHz
Bit depth : 16 bits
Compression mode : Lossy
Stream size : 389 MiB (5%)
Title : Eng
Language : English
Default : No
Forced : No
Text #1
ID : 4
Format : UTF-8
Codec ID : S_TEXT/UTF8
Codec ID/Info : UTF-8 Plain Text
Title : full [Хикари]
Language : Russian
Default : No
Forced : No
Text #2
ID : 5
Format : UTF-8
Codec ID : S_TEXT/UTF8
Codec ID/Info : UTF-8 Plain Text
Title : full
Language : English
Default : No
Forced : No


#77



   Похожие торренты   Торрент   Размер 
В этой теме нет новых непрочитанных сообщений. Трансформеры: Фильм / The Transformers: The Movie (1986) BDRip От Azazel | L

137 | 9

2.55 ГБ

В этой теме нет новых непрочитанных сообщений. Трансформеры / Transformers: The Movie (1986) BDRip 1080p | L, L, A, D

7 | 3

7.96 ГБ

В этой теме нет новых непрочитанных сообщений. Трансформеры / The Transformers: The Movie (1986) BDRip-AVC от L

304 | 10

2.18 ГБ

В этой теме нет новых непрочитанных сообщений. Трансформеры / Transformers: The Movie (1986) BDRip от HQ-ViDEO

23 | 11

1.72 ГБ

В этой теме нет новых непрочитанных сообщений. Трансформеры / The Transformers: The Movie (1986) BDRip от Koenig | L, A

20 | 0

1.45 ГБ

В этой теме нет новых непрочитанных сообщений. Трансформеры / Transformers.The Movie (1986) HDRip от HQRips

1 | 2

1.45 ГБ

В этой теме нет новых непрочитанных сообщений. Трансформеры: Битвы Зверей 2 - Фильм / Transformers: Beast Wars II - The Movie (1998) DVDRip От Victorious

24 | 4

698.68 МБ




Вы не можете начинать темы
Вы не можете отвечать на сообщения
Вы не можете редактировать свои сообщения
Вы не можете удалять свои сообщения
Вы не можете добавлять вложения

Перейти:  
Для Мосгорсуда, Роскомнадзора и рекламодателей: mosgorsud-torrent[собачка]yandex.ru
 Вход
ppkBB3cker v.2 © 2008-2014 @ PPK
[ Time : 0.845s | 15 Queries | GZIP : On ]

Торрент трекер RUTOR.IN, Не можете зайти на rutor.org? Какой новый адрес рутор? Какое зеркало рутор? Не работает rutor.org и зеркала? Тогда наш торрент специально для вас. Rutor.in неофициальное зеркало rutor. В случае если у Вас заблокирован rutor или вдруг Вы не можете на него зайти, то Вы без труда сможете скачать бесплатно и без рекламы последние новинки кино, игр, сериалов и прочего у нас, на Rutor.in. Не нужно использовать прокси, чтобы зайти на рутор, достаточно воспользоваться нашим ресурсом. Все новые фильмы, игры, сериалы, книги и музыка за 2013 и 2014 годы через торрент бесплатно. Скачивайте фильмы в хорошем качестве, игры для пк, xbox, playstation без регистрации. У нас вы найдете новые Зарубежные сериалы и Русские сериалы 2013, 2014, 2015 годов. Оставайтесь с нами, качайте любимые фильмы, игры, сериалы, книги и музыку.