img image001 image001 image001 image001 image001 image001 image001 image001 image001 image001 image001 image001 image001 image001 image001

Planets Sun Sun Sun
Статистика раздачи
Автор: Nickolas3434 | Размер: 4.31 ГБ | Добавлен: 17 фев 2015
Раздают: 31    Качают: 7
Скачать торрент
Скачать торрент
Описание торрента

СообщениеДобавлено: 17 фев 2015 


Информация о фильме
Название : Ночной чародей
Оригинальное название : Night Wizard The Animation
Год выхода : 2007
Жанр : приключения, комедия, фэнтези
Режиссер : Ямамото Юсукэ
Роли озвучивали : Наоки Янаги, Акено Ватанабэ, Эма Когурэ, Сато Рина, Рёка Юдзуки, Уи Миядзаки, Юко Гото, Ая Хисакава, Ери Накао, Эрино Хадзуки

Описание : На основе одноимённой игры компании F.E.A.R.
Ренджи Хираги один из Ночных чародеев, чья миссия состоит в защите мира от нависшей тьмы. Его последний приказ состоял в том, чтобы защитить Элис Шихо, новую студентку его академии. Вскоре Элис осознает что обладает силой одного из семи тайных камней, с помощью которой она может стать Ночным чародеем. Вместе с Ренджи и Куреха, Элис начинает новую жизнь.
Страна : Япония
Производство : Hal Film Maker
Продолжительность : 13 серии по ~25 мин
Перевод: Любительский (одноголосый, закадровый)
Перевод: PRV (1-4), Dajana (5-6), Lord Rimus (7-13), редактор: Arhont, sad_kit
Озвучка:
- одноголосая закадровая: (муж.) sad_kit
Автор рипа и релиза : Anything-group
Файл
Формат видео: AVI
Качество : BDRip
Видео: XVID, 852x480 (16:9), 1502 kbps, 23.976 fps, 8bit
Аудио 1: Русский, MP3, 192 Кбит/с, 48.0 Hz, 2 ch (в составе контейнера)
Аудио 2: Японский, MP3, 192 Кбит/с, 48.0 Hz, 2 ch (в составе контейнера)
Субтитры : Нет

01. Лунная шкатулка ~Красная Луна, Голубые Глаза~
02. Падающий человек ~Цель - мир~
03. Два огня ~Падение Магалланики~
04. Кирихито ~Встреча на Луне~
05. Отшельничий остров ~Два Мечника~
06. Кошмар: ~Бессознательная Эрис~
07. Небольшой бонус ~Подарок Эрис~
08. Прыжок сквозь время ~Башня маленькой девочки~
09. Ящик Пандоры ~Белл против Анзелотты~
10. Бог Разрушения ~Планка Карнеада~
11. Часть воспоминаний ~Танцы внутри иллюзий~
12. Прощай
13. С Днем Рождения


General
Complete name : E:/Torrent_2/Night Wizard The Animation/Night_Wizard_The_Animation_01_[Anything-group.DVDRip].avi
Format : AVI
Format/Info : Audio Video Interleave
File size : 342 MiB
Duration : 25mn 10s
Overall bit rate : 1 900 Kbps
Writing application : VirtualDubMod 1.5.10.2 (build 2540/release)
Writing library : VirtualDubMod build 2540/release
Video #0
ID : 0
Format : MPEG-4 Visual
Format profile : Advanced Simple@L5
Format settings, BVOP : 1
Format settings, QPel : No
Format settings, GMC : No warppoints
Format settings, Matrix : Default (H.263)
Codec ID : XVID
Codec ID/Hint : XviD
Duration : 25mn 10s
Bit rate : 1 502 Kbps
Width : 852 pixels
Height : 480 pixels
Display aspect ratio : 16:9
Frame rate : 23.976 fps
Color space : YUV
Chroma subsampling : 4:2:0
Bit depth : 8 bits
Scan type : Progressive
Compression mode : Lossy
Bits/(Pixel*Frame) : 0.153
Stream size : 271 MiB (79%)
Writing library : XviD 1.2.1 (UTC 2008-12-04)
Audio #1
ID : 1
Format : MPEG Audio
Format version : Version 1
Format profile : Layer 3
Mode : Joint stereo
Codec ID : 55
Codec ID/Hint : MP3
Duration : 25mn 10s
Bit rate mode : Constant
Bit rate : 192 Kbps
Channel(s) : 2 channels
Sampling rate : 48.0 KHz
Compression mode : Lossy
Stream size : 34.6 MiB (10%)
Alignment : Aligned on interleaves
Interleave, duration : 42 ms (1.00 video frame)
Interleave, preload duration : 504 ms
Title : ru/ sad_kit
Audio #2
ID : 2
Format : MPEG Audio
Format version : Version 1
Format profile : Layer 3
Mode : Joint stereo
Codec ID : 55
Codec ID/Hint : MP3
Duration : 25mn 10s
Bit rate mode : Constant
Bit rate : 192 Kbps
Channel(s) : 2 channels
Sampling rate : 48.0 KHz
Compression mode : Lossy
Stream size : 34.6 MiB (10%)
Alignment : Aligned on interleaves
Interleave, duration : 42 ms (1.00 video frame)
Interleave, preload duration : 504 ms
Title : jpn
Writing library : LAME3.98r
Encoding settings : -m j -V 4 -q 2 -lowpass 18.6 -b 192





   Похожие торренты   Торрент   Размер 
В этой теме нет новых непрочитанных сообщений. Ночной буйвол / El búfalo de la noche / The Night Buffalo (2007) DVDRip | L1

66 | 6

706.55 МБ

В этой теме нет новых непрочитанных сообщений. Ночной полет / Ночной летун / The Night Flier (1997) DVDRip-AVC | A

85 | 7

2.18 ГБ

В этой теме нет новых непрочитанных сообщений. Ночной полет / Ночной летчик / The Night Flier (1997) DVDRip | P2

6 | 6

678.12 МБ

В этой теме нет новых непрочитанных сообщений. Ночной полет / Ночной летун / The Night Flier (1997) DVDRip | A

5 | 21

1.36 ГБ

В этой теме нет новых непрочитанных сообщений. Ночной дозор / Дневник ночного дозора / Ночной патруль / Yakyung-ggoonilji / The Night Watchman /The Night Watchman's Journal [01-24 из 24] (2014) HDTVRip | L1

31 | 10

14.87 ГБ

В этой теме нет новых непрочитанных сообщений. Огни Ночной Пятницы / Friday Night Lights [S02] (2007) HDTVRip

17 | 2

5.1 ГБ

В этой теме нет новых непрочитанных сообщений. Ночной слушатель / The Night Listener (2006) DVDRip

36 | 7

1.12 ГБ




Вы не можете начинать темы
Вы не можете отвечать на сообщения
Вы не можете редактировать свои сообщения
Вы не можете удалять свои сообщения
Вы не можете добавлять вложения

Перейти:  
Для Мосгорсуда, Роскомнадзора и рекламодателей: mosgorsud-torrent[собачка]yandex.ru
 Вход
ppkBB3cker v.2 © 2008-2014 @ PPK
[ Time : 0.088s | 15 Queries | GZIP : Off ]

Торрент трекер RUTOR.IN, Не можете зайти на rutor.org? Какой новый адрес рутор? Какое зеркало рутор? Не работает rutor.org и зеркала? Тогда наш торрент специально для вас. Rutor.in неофициальное зеркало rutor. В случае если у Вас заблокирован rutor или вдруг Вы не можете на него зайти, то Вы без труда сможете скачать бесплатно и без рекламы последние новинки кино, игр, сериалов и прочего у нас, на Rutor.in. Не нужно использовать прокси, чтобы зайти на рутор, достаточно воспользоваться нашим ресурсом. Все новые фильмы, игры, сериалы, книги и музыка за 2013 и 2014 годы через торрент бесплатно. Скачивайте фильмы в хорошем качестве, игры для пк, xbox, playstation без регистрации. У нас вы найдете новые Зарубежные сериалы и Русские сериалы 2013, 2014, 2015 годов. Оставайтесь с нами, качайте любимые фильмы, игры, сериалы, книги и музыку.