img image001 image001 image001 image001 image001 image001 image001 image001 image001 image001 image001 image001 image001 image001 image001

Planets Sun Sun Sun
Статистика раздачи
Автор: Nickolas3434 | Размер: 5.75 ГБ | Добавлен: 18 фев 2015
Раздают: 117    Качают: 7
Скачать торрент
Скачать торрент
Описание торрента

СообщениеДобавлено: 18 фев 2015 


#77
Информация о фильме
    Русское название: Полиция будущего
    Оригинальное название: Patlabor 1: The Movie
    Год выхода: 1989
    Жанр: аниме, мультфильм, фантастика, боевик, триллер, драма, криминал, детектив
    Режиссер: Мамору Осии
    Выпущено: Япония
    Продолжительность: 01:39:03
    Перевод: Профессиональный (Многоголосый закадровый)


Сюжет фильма
    Не слишком далекое будущее. Для строительных работ изобретены специальные роботы, так называемые «Лаборы». Однако, преступники приспособили их для боевых действий.
    Чтобы справиться с таким криминалом была организована мобильная полиция, которая использовала «Патлаборы» — это полицейская версия строительных роботов, оснащенная револьверной пушкой и электро-шоковой дубинкой.
    И вот перед нами разворачивается жизнь ребят из второго дивизиона мобильной полиции, начиная от поступления туда, тренировок и заканчивая боевыми дежурствами.


Файл
    Качество: BDRip 1080p (исходник Blu-ray Disc Remux)
    Видео: 1920x1080, 7298 Кбит/сек, 23,976 кадр/сек, AVC, x264, High@L4.1, 1.85:1, 0.154 Бит/[Пиксели*Кадры]
    Аудио 1: AC-3, 384 Кбит/сек, 6 канала(ов), 48,0 КГц - Многоголосый закадровый / Русский
    Аудио 2: AC-3, 640 Кбит/сек, 6 канала(ов), 48,0 КГц - Оригинал / Японский
    Субтитры: Русские | Полные, Английские | Полные
    Форсированные субтитры: Нет
    Чаптеры (Главы): Нет



Автор Рипа: Сообщество:



Format : Matroska
Format version : Version 2
File size : 5.75 GiB
Duration : 1h 39mn
Overall bit rate : 8 312 Kbps
Movie name : Полиция будущего.(1989).BDRip.1080p.[envy]
Encoded date : UTC 2015-02-16 07:49:40
Writing application : mkvmerge v5.8.0 ('No Sleep / Pillow') built on Sep 2 2012 15:37:04
Writing library : libebml v1.2.3 + libmatroska v1.3.0
Video
ID : 1
Format : AVC
Format/Info : Advanced Video Codec
Format profile : High@L4.1
Format settings, CABAC : Yes
Format settings, ReFrames : 4 frames
Codec ID : V_MPEG4/ISO/AVC
Duration : 1h 39mn
Bit rate : 7 298 Kbps
Width : 1 912 pixels
Height : 1 034 pixels
Display aspect ratio : 1.85:1
Frame rate mode : Constant
Frame rate : 23.976 fps
Color space : YUV
Chroma subsampling : 4:2:0
Bit depth : 8 bits
Scan type : Progressive
Bits/(Pixel*Frame) : 0.154
Stream size : 4.93 GiB (86%)
Title : Полиция будущего.(1989).BDRip.1080p.[envy]
Writing library : x264 core 144 r2525 40bb568
Encoding settings : cabac=1 / ref=4 / deblock=1:0:0 / analyse=0x3:0x133 / me=umh / subme=11 / psy=1 / psy_rd=1.00:0.00 / mixed_ref=1 / me_range=48 / chroma_me=1 / trellis=2 / 8x8dct=1 / cqm=0 / deadzone=21,11 / fast_pskip=0 / chroma_qp_offset=-2 / threads=12 / lookahead_threads=1 / sliced_threads=0 / nr=0 / decimate=1 / interlaced=0 / bluray_compat=0 / constrained_intra=0 / bframes=6 / b_pyramid=2 / b_adapt=2 / b_bias=0 / direct=3 / weightb=1 / open_gop=0 / weightp=2 / keyint=240 / keyint_min=23 / scenecut=40 / intra_refresh=0 / rc=2pass / mbtree=0 / bitrate=7298 / ratetol=2.0 / qcomp=0.60 / qpmin=0 / qpmax=69 / qpstep=4 / cplxblur=20.0 / qblur=0.5 / ip_ratio=1.40 / pb_ratio=1.30 / aq=2:1.00
Language : English
Default : Yes
Forced : No
Audio #1
ID : 2
Format : AC-3
Format/Info : Audio Coding 3
Mode extension : CM (complete main)
Format settings, Endianness : Big
Codec ID : A_AC3
Duration : 1h 39mn
Bit rate mode : Constant
Bit rate : 384 Kbps
Channel(s) : 6 channels
Channel positions : Front: L C R, Side: L R, LFE
Sampling rate : 48.0 KHz
Bit depth : 16 bits
Compression mode : Lossy
Stream size : 272 MiB (5%)
Title : MVO
Language : Russian
Default : Yes
Forced : No
Audio #2
ID : 3
Format : AC-3
Format/Info : Audio Coding 3
Mode extension : CM (complete main)
Format settings, Endianness : Big
Codec ID : A_AC3
Duration : 1h 39mn
Bit rate mode : Constant
Bit rate : 640 Kbps
Channel(s) : 6 channels
Channel positions : Front: L C R, Side: L R, LFE
Sampling rate : 48.0 KHz
Bit depth : 16 bits
Compression mode : Lossy
Stream size : 453 MiB (8%)
Title : Jpn
Language : Japanese
Default : No
Forced : No
Text #1
ID : 4
Format : UTF-8
Codec ID : S_TEXT/UTF8
Codec ID/Info : UTF-8 Plain Text
Title : Rus full
Language : Russian
Default : No
Forced : No
Text #2
ID : 5
Format : UTF-8
Codec ID : S_TEXT/UTF8
Codec ID/Info : UTF-8 Plain Text
Title : Eng full
Language : English
Default : No
Forced : No


#77



   Похожие торренты   Торрент   Размер 
В этой теме нет новых непрочитанных сообщений. Полиция Будущего: Восстание / Patlabor 2: The Movie (1993) BDRip 1080p от NNNB

97 | 6

6.75 ГБ

В этой теме нет новых непрочитанных сообщений. Полиция будущего / Patlabor 1: The Movie (1989) BDRip от HQ-ViDEO

25 | 4

1.46 ГБ

В этой теме нет новых непрочитанных сообщений. Полиция будущего 3: Монстр / WXIII: Patlabor The Movie 3 (2002) BDRip от HQ-ViDEO

22 | 5

1.46 ГБ

В этой теме нет новых непрочитанных сообщений. Полиция Будущего 3: Монстр / Patlabor WXIII / WXIII Kidou Keisatsu Patlabor (2002) BDRip 1080p

94 | 5

8.1 ГБ

В этой теме нет новых непрочитанных сообщений. Полиция будущего. Монстр (фильм третий) / WXIII: Patlabor The Movie 3 (2002) HDRip-AVC от potroks

6 | 3

1.46 ГБ

В этой теме нет новых непрочитанных сообщений. Полиция будущего / Future Force (1989) DVDRip | А

4 | 1

750.05 МБ

В этой теме нет новых непрочитанных сообщений. Симпсоны в кино / The Simpsons Movie (2007) BDRip 1080p от NNNB

344 | 16

2.96 ГБ




Вы не можете начинать темы
Вы не можете отвечать на сообщения
Вы не можете редактировать свои сообщения
Вы не можете удалять свои сообщения
Вы не можете добавлять вложения

Перейти:  
Для Мосгорсуда, Роскомнадзора и рекламодателей: mosgorsud-torrent[собачка]yandex.ru
 Вход
ppkBB3cker v.2 © 2008-2014 @ PPK
[ Time : 0.048s | 16 Queries | GZIP : Off ]

Торрент трекер RUTOR.IN, Не можете зайти на rutor.org? Какой новый адрес рутор? Какое зеркало рутор? Не работает rutor.org и зеркала? Тогда наш торрент специально для вас. Rutor.in неофициальное зеркало rutor. В случае если у Вас заблокирован rutor или вдруг Вы не можете на него зайти, то Вы без труда сможете скачать бесплатно и без рекламы последние новинки кино, игр, сериалов и прочего у нас, на Rutor.in. Не нужно использовать прокси, чтобы зайти на рутор, достаточно воспользоваться нашим ресурсом. Все новые фильмы, игры, сериалы, книги и музыка за 2013 и 2014 годы через торрент бесплатно. Скачивайте фильмы в хорошем качестве, игры для пк, xbox, playstation без регистрации. У нас вы найдете новые Зарубежные сериалы и Русские сериалы 2013, 2014, 2015 годов. Оставайтесь с нами, качайте любимые фильмы, игры, сериалы, книги и музыку.
cron