img image001 image001 image001 image001 image001 image001 image001 image001 image001 image001 image001 image001 image001 image001 image001

Planets Sun Sun Sun
Статистика раздачи
Автор: Nickolas3434 | Размер: 6.75 ГБ | Добавлен: 19 фев 2015
Раздают: 97    Качают: 6
Скачать торрент
Скачать торрент
Описание торрента

СообщениеДобавлено: 19 фев 2015 


#77
Информация о фильме
    Русское название: Полиция Будущего: Восстание
    Оригинальное название: Patlabor 2: The Movie
    Год выхода: 1993
    Жанр: аниме, мультфильм, фантастика, триллер, драма, детектив, военный
    Режиссер: Мамору Осии
    Выпущено: Япония
    Продолжительность: 01:53:44
    Перевод: Профессиональный (Многоголосый закадровый)


Сюжет фильма
    Через три года после событий первой картины сотрудники Подразделения специальной техники сталкиваются с новой, куда более серьезной угрозой: неизвестный террорист манипулирует высокотехнологичными системами Сил Самообороны Японии, сея разрушения и панику на улицах Токио.
    Правительство объявляет военное положение, идет сложная политическая игра, соперничают различные ведомства… Лишенные своих «лейборов» полицейские лихорадочно проводят собственное расследование, стараясь предотвратить государственный переворот.


Файл
    Качество: BDRip 1080p (исходник Blu-ray Disc Remux)
    Видео: 1912x1034, 7497 Кбит/сек, 23,976 кадр/сек, AVC, x264, High@L4.1, 1.85:1, 0.158 Бит/[Пиксели*Кадры]
    Аудио 1: AC-3, 384 Кбит/сек, 6 канала(ов), 48,0 КГц - Многоголосый закадровый / Русский
    Аудио 2: AC-3, 640 Кбит/сек, 6 канала(ов), 48,0 КГц - Оригинал / Японский
    Субтитры: Русские | Полные, Английские | Полные
    Форсированные субтитры: Нет
    Чаптеры (Главы): Есть



Автор Рипа: Сообщество:



Format : Matroska
Format version : Version 2
File size : 6.75 GiB
Duration : 1h 53mn
Overall bit rate : 8 494 Kbps
Movie name : Полиция Будущего: Восстание.(1993).BDRip.1080p.[envy]
Encoded date : UTC 2015-02-19 08:05:58
Writing application : mkvmerge v5.8.0 ('No Sleep / Pillow') built on Sep 2 2012 15:37:04
Writing library : libebml v1.2.3 + libmatroska v1.3.0
Video
ID : 1
Format : AVC
Format/Info : Advanced Video Codec
Format profile : High@L4.1
Format settings, CABAC : Yes
Format settings, ReFrames : 4 frames
Codec ID : V_MPEG4/ISO/AVC
Duration : 1h 53mn
Bit rate : 7 497 Kbps
Width : 1 912 pixels
Height : 1 034 pixels
Display aspect ratio : 1.85:1
Frame rate mode : Constant
Frame rate : 23.976 fps
Color space : YUV
Chroma subsampling : 4:2:0
Bit depth : 8 bits
Scan type : Progressive
Bits/(Pixel*Frame) : 0.158
Stream size : 5.80 GiB (86%)
Title : Полиция Будущего: Восстание.(1993).BDRip.1080p.[envy]
Writing library : x264 core 144 r2525 40bb568
Encoding settings : cabac=1 / ref=4 / deblock=1:0:0 / analyse=0x3:0x133 / me=umh / subme=11 / psy=1 / psy_rd=1.00:0.00 / mixed_ref=1 / me_range=48 / chroma_me=1 / trellis=2 / 8x8dct=1 / cqm=0 / deadzone=21,11 / fast_pskip=0 / chroma_qp_offset=-2 / threads=12 / lookahead_threads=2 / sliced_threads=0 / nr=0 / decimate=1 / interlaced=0 / bluray_compat=0 / constrained_intra=0 / bframes=8 / b_pyramid=2 / b_adapt=2 / b_bias=0 / direct=3 / weightb=1 / open_gop=0 / weightp=2 / keyint=240 / keyint_min=23 / scenecut=40 / intra_refresh=0 / rc=2pass / mbtree=0 / bitrate=7497 / ratetol=2.0 / qcomp=0.60 / qpmin=0 / qpmax=69 / qpstep=4 / cplxblur=20.0 / qblur=0.5 / ip_ratio=1.40 / pb_ratio=1.30 / aq=2:1.00
Language : Japanese
Default : Yes
Forced : No
Audio #1
ID : 2
Format : AC-3
Format/Info : Audio Coding 3
Mode extension : CM (complete main)
Format settings, Endianness : Big
Codec ID : A_AC3
Duration : 1h 53mn
Bit rate mode : Constant
Bit rate : 384 Kbps
Channel(s) : 6 channels
Channel positions : Front: L C R, Side: L R, LFE
Sampling rate : 48.0 KHz
Bit depth : 16 bits
Compression mode : Lossy
Stream size : 312 MiB (5%)
Title : MVO
Language : Russian
Default : Yes
Forced : No
Audio #2
ID : 3
Format : AC-3
Format/Info : Audio Coding 3
Mode extension : CM (complete main)
Format settings, Endianness : Big
Codec ID : A_AC3
Duration : 1h 53mn
Bit rate mode : Constant
Bit rate : 640 Kbps
Channel(s) : 6 channels
Channel positions : Front: L C R, Side: L R, LFE
Sampling rate : 48.0 KHz
Bit depth : 16 bits
Compression mode : Lossy
Stream size : 521 MiB (8%)
Title : Jpn
Language : Japanese
Default : No
Forced : No
Text #1
ID : 4
Format : UTF-8
Codec ID : S_TEXT/UTF8
Codec ID/Info : UTF-8 Plain Text
Title : Rus full
Language : Russian
Default : No
Forced : No
Text #2
ID : 5
Format : UTF-8
Codec ID : S_TEXT/UTF8
Codec ID/Info : UTF-8 Plain Text
Title : Eng full
Language : English
Default : No
Forced : No
Menu
00:00:00.000 : en:00:00:00.000
00:03:44.015 : en:00:03:44.015
00:06:16.501 : en:00:06:16.501
00:08:08.363 : en:00:08:08.363
00:10:25.166 : en:00:10:25.166
00:12:05.141 : en:00:12:05.141
00:14:21.319 : en:00:14:21.319
00:16:08.885 : en:00:16:08.885
00:17:16.577 : en:00:17:16.577
00:19:28.209 : en:00:19:28.209
00:22:44.321 : en:00:22:44.321
00:25:54.970 : en:00:25:54.970
00:30:59.066 : en:00:30:59.066
00:37:03.888 : en:00:37:03.888
00:45:17.131 : en:00:45:17.131
00:49:21.458 : en:00:49:21.458
00:53:00.928 : en:00:53:00.928
00:57:33.325 : en:00:57:33.325
00:59:47.751 : en:00:59:47.751
01:03:13.081 : en:01:03:13.081
01:08:06.541 : en:01:08:06.541
01:10:33.604 : en:01:10:33.604
01:12:43.985 : en:01:12:43.985
01:13:24.984 : en:01:13:24.984
01:15:48.627 : en:01:15:48.627
01:19:45.155 : en:01:19:45.155
01:25:44.222 : en:01:25:44.222
01:27:51.641 : en:01:27:51.641
01:30:22.250 : en:01:30:22.250
01:32:54.527 : en:01:32:54.527
01:33:48.957 : en:01:33:48.957
01:38:13.721 : en:01:38:13.721
01:44:15.875 : en:01:44:15.875
01:48:08.774 : en:01:48:08.774


#77



   Похожие торренты   Торрент   Размер 
В этой теме нет новых непрочитанных сообщений. Полиция будущего / Patlabor 1: The Movie (1989) BDRip 1080p от NNNB

117 | 7

5.75 ГБ

В этой теме нет новых непрочитанных сообщений. Полиция будущего / Patlabor 1: The Movie (1989) BDRip от HQ-ViDEO

25 | 4

1.46 ГБ

В этой теме нет новых непрочитанных сообщений. Полиция будущего 3: Монстр / WXIII: Patlabor The Movie 3 (2002) BDRip от HQ-ViDEO

22 | 5

1.46 ГБ

В этой теме нет новых непрочитанных сообщений. Полиция Будущего 3: Монстр / Patlabor WXIII / WXIII Kidou Keisatsu Patlabor (2002) BDRip 1080p

94 | 5

8.1 ГБ

В этой теме нет новых непрочитанных сообщений. Полиция будущего. Монстр (фильм третий) / WXIII: Patlabor The Movie 3 (2002) HDRip-AVC от potroks

6 | 3

1.46 ГБ

В этой теме нет новых непрочитанных сообщений. Пчёлка Майя / Maya The Bee – Movie (2014) BDRip 1080p от NNNB

262 | 37

5.76 ГБ

В этой теме нет новых непрочитанных сообщений. Трансформеры: Фильм / Transformers: The Movie (1986) BDRip 1080p от NNNB

25 | 9

7.75 ГБ




Вы не можете начинать темы
Вы не можете отвечать на сообщения
Вы не можете редактировать свои сообщения
Вы не можете удалять свои сообщения
Вы не можете добавлять вложения

Перейти:  
Для Мосгорсуда, Роскомнадзора и рекламодателей: mosgorsud-torrent[собачка]yandex.ru
 Вход
ppkBB3cker v.2 © 2008-2014 @ PPK
[ Time : 0.546s | 15 Queries | GZIP : Off ]

Торрент трекер RUTOR.IN, Не можете зайти на rutor.org? Какой новый адрес рутор? Какое зеркало рутор? Не работает rutor.org и зеркала? Тогда наш торрент специально для вас. Rutor.in неофициальное зеркало rutor. В случае если у Вас заблокирован rutor или вдруг Вы не можете на него зайти, то Вы без труда сможете скачать бесплатно и без рекламы последние новинки кино, игр, сериалов и прочего у нас, на Rutor.in. Не нужно использовать прокси, чтобы зайти на рутор, достаточно воспользоваться нашим ресурсом. Все новые фильмы, игры, сериалы, книги и музыка за 2013 и 2014 годы через торрент бесплатно. Скачивайте фильмы в хорошем качестве, игры для пк, xbox, playstation без регистрации. У нас вы найдете новые Зарубежные сериалы и Русские сериалы 2013, 2014, 2015 годов. Оставайтесь с нами, качайте любимые фильмы, игры, сериалы, книги и музыку.