img image001 image001 image001 image001 image001 image001 image001 image001 image001 image001 image001 image001 image001 image001 image001

Planets Sun Sun Sun
Статистика раздачи
Автор: Nickolas3434 | Размер: 4.37 ГБ | Добавлен: 04 мар 2015
Раздают: 1    Качают: 3
Скачать торрент
Скачать торрент
Описание торрента

СообщениеДобавлено: 04 мар 2015 

Оригинальное название: Durarara!!x2 Shou
Русское название: Дюрарара!! 2 (сезон первый)
Жанр: комедия, приключения, мистика
Тип: TV-сериал


Количество серий: 8 из 12 эпизодов
Продолжительность: 25 минут
Качество видео: HDTV
Дата премьеры / период выхода: c 10.01.2015


Производство/студия: Shuka
Автор оригинала: Нарита Рёго
Режиссер: Омори Такахиро


Релиз подготовлен ArtVoiceStudio
Тип озвучки: Любительская Многоголосая, закадровая (Состав ниже)
Описание:
— 6 месяцев прошло... Мы совсем не изменились... или так только кажется...
Миновало полгода после хаоса в Икэбукуро; и теперь город и люди в нем полностью вернулись к нормальной жизни. Старшеклассники наслаждаются днями своей юности, пока сильнейший (и опаснейший) человек в Икэбукуро усердно трудится на благо общества. Информатор разрабатывает новые планы, а Всадник без головы успешно ускользает от полиции, каждый раз скрываясь в ночи...
Однако скоро на смену воцарившемуся спокойствию вновь придет безумие. Медленно, но верно нечто неизвестное захватит город, и его жителям придется пройти через еще одну бурю.
© Autumn, Shikimori


Качество: HDTVRip
Тип релиза: Без хардсаба
Формат видео: MKV
Энкод: HorribleSubs
Видео: H264 (8 bit), 1920x1080, 3072 kbps, 23,976 fps
Аудио: Dolby AC3, 192kbps, 48000Hz, stereo
Перевод: Nesitach. Редакция/Оформление: Stan WarHammer. QC: Holydarkness. Перевод песен: Chili.

Артём Яшин, Елена Рузаева, Игорь Полуэктов, Lasik, Анна Полевская, Екатерина Дмитрова
Звукорежиссёр: Алексей Вира

01. Лучше один раз увидеть, чем сто раз услышать
02. Гармония при выше всего
03. Пришла беда - отворяй ворота
04. В чужой монастырь со своим уставом не ходят
05. Никто не знает, что будет завтра
06. Черная ворона тёмной ночью
07. Москва слезам не верит
08. У Казановы не бывает ни денег, ни власти


Код:
Общее
Уникальный идентификатор                 : 220154653502417781755971981415293329157 (0xA5A03E7402318015B3C6BF3CD5E31F05)
Полное имя                               : C:UsersAdminDesktop[HorribleSubs] Durarara!! X2 - 02 [1080p] (1).mkv
Формат                                   : Matroska
Версия формата                           : Version 2
Размер файла                             : 559 Мбайт
Продолжительность                        : 24 м.
Общий поток                              : 3253 Кбит/сек
Дата кодирования                         : UTC 2015-01-17 20:14:54
Программа кодирования                    : mkvmerge v3.4.0 ('Rapunzel') сборка от May 15 2010 09:38:20
Библиотека кодирования                   : libebml v0.8.0 + libmatroska v0.9.0
Attachements                             : OpenSans-Semibold.ttf

Видео
Идентификатор                            : 1
Формат                                   : AVC
Формат/Информация                        : Advanced Video Codec
Профиль формата                          : High@L4.0
Параметр CABAC формата                   : Да
Параметр ReFrames формата                : 4 кадра
Идентификатор кодека                     : V_MPEG4/ISO/AVC
Продолжительность                        : 24 м.
Битрейт                                  : 3072 Кбит/сек
Ширина                                   : 1920 пикселей
Высота                                   : 1080 пикселей
Соотношение сторон                       : 16:9
Режим частоты кадров                     : Постоянный
Частота кадров                           : 23,976 кадра/сек
Цветовое пространство                    : YUV
Субдискретизация насыщенности            : 4:2:0
Битовая глубина                          : 8 бит
Тип развёртки                            : Прогрессивная
Бит/(Пиксели*Кадры)                      : 0.062
Размер потока                            : 514 Мбайт (92%)
Библиотека кодирования                   : x264 core 120 r2120 0c7dab9
Настройки программы                      : cabac=1 / ref=4 / deblock=1:1:1 / analyse=0x3:0x113 / me=umh / subme=8 / psy=1 / psy_rd=0.40:0.00 / mixed_ref=1 / me_range=16 / chroma_me=1 / trellis=1 / 8x8dct=1 / cqm=0 / deadzone=21,11 / fast_pskip=1 / chroma_qp_offset=-2 / threads=8 / sliced_threads=0 / nr=0 / decimate=1 / interlaced=0 / bluray_compat=0 / constrained_intra=0 / bframes=3 / b_pyramid=2 / b_adapt=2 / b_bias=0 / direct=3 / weightb=1 / open_gop=0 / weightp=2 / keyint=250 / keyint_min=23 / scenecut=40 / intra_refresh=0 / rc_lookahead=50 / rc=2pass / mbtree=1 / bitrate=3072 / ratetol=1.0 / qcomp=0.60 / qpmin=0 / qpmax=69 / qpstep=4 / cplxblur=20.0 / qblur=0.5 / vbv_maxrate=6144 / vbv_bufsize=15360 / nal_hrd=none / ip_ratio=1.40 / aq=1:0.60
Default                                  : Нет
Forced                                   : Нет

Аудио
Идентификатор                            : 2
Формат                                   : AC-3
Формат/Информация                        : Audio Coding 3
Расширение режима                        : CM (complete main)
Параметр Endianness формата              : Big
Идентификатор кодека                     : A_AC3
Продолжительность                        : 24 м.
Вид битрейта                             : Постоянный
Битрейт                                  : 192 Кбит/сек
Каналы                                   : 2 канала
Расположение каналов                     : Front: L R
Частота                                  : 48,0 КГц
Битовая глубина                          : 16 бит
Метод сжатия                             : С потерями
Размер потока                            : 33,0 Мбайт (6%)
Default                                  : Да
Forced                                   : Нет


Скриншоты:



   Похожие торренты   Торрент   Размер 
В этой теме нет новых непрочитанных сообщений. Дюрарара!! 2 / Durarara!!x2 Shou [01-12 из 12] (2015) WEBRip 1080p от ArtVoiceStudio

35 | 12

6.56 ГБ

В этой теме нет новых непрочитанных сообщений. Дюрарара!! 2 / Durarara!!x2 Shou [01-03 из 12] (2015) WEBRip 1080p от ArtVoiceStudio

1 | 2

1.64 ГБ

В этой теме нет новых непрочитанных сообщений. Дюрарара!! 2 / Durarara!!x2 Shou [01-10 из 12] (2015) WEBRip 1080p от ArtVoiceStudio

0 | 2

5.46 ГБ

В этой теме нет новых непрочитанных сообщений. Дюрарара!! 2 / Durarara!!x2 Shou [01-04 из 12] (2015) WEBRip 1080p от ArtVoiceStudio

0 | 2

2.18 ГБ

В этой теме нет новых непрочитанных сообщений. Дюрарара!! 2 / Durarara!!x2 Shou [01-06 из 12] (2015) WEBRip 1080p от ArtVoiceStudio

1 | 3

3.28 ГБ

В этой теме нет новых непрочитанных сообщений. Дюрарара!! 2 / Durarara!!x2 Shou [01-11 из 12] (2015) WEBRip 1080p от ArtVoiceStudio

3 | 3

6.01 ГБ

В этой теме нет новых непрочитанных сообщений. Дюрарара!! 2 / Durarara!!x2 Shou [01-05 из 12] (2015) WEBRip 1080p от ArtVoiceStudio

2 | 2

2.73 ГБ




Вы не можете начинать темы
Вы не можете отвечать на сообщения
Вы не можете редактировать свои сообщения
Вы не можете удалять свои сообщения
Вы не можете добавлять вложения

Перейти:  
Для Мосгорсуда, Роскомнадзора и рекламодателей: mosgorsud-torrent[собачка]yandex.ru
 Вход
ppkBB3cker v.2 © 2008-2014 @ PPK
[ Time : 0.037s | 15 Queries | GZIP : Off ]

Торрент трекер RUTOR.IN, Не можете зайти на rutor.org? Какой новый адрес рутор? Какое зеркало рутор? Не работает rutor.org и зеркала? Тогда наш торрент специально для вас. Rutor.in неофициальное зеркало rutor. В случае если у Вас заблокирован rutor или вдруг Вы не можете на него зайти, то Вы без труда сможете скачать бесплатно и без рекламы последние новинки кино, игр, сериалов и прочего у нас, на Rutor.in. Не нужно использовать прокси, чтобы зайти на рутор, достаточно воспользоваться нашим ресурсом. Все новые фильмы, игры, сериалы, книги и музыка за 2013 и 2014 годы через торрент бесплатно. Скачивайте фильмы в хорошем качестве, игры для пк, xbox, playstation без регистрации. У нас вы найдете новые Зарубежные сериалы и Русские сериалы 2013, 2014, 2015 годов. Оставайтесь с нами, качайте любимые фильмы, игры, сериалы, книги и музыку.