img image001 image001 image001 image001 image001 image001 image001 image001 image001 image001 image001 image001 image001 image001 image001

Planets Sun Sun Sun
Статистика раздачи
Автор: Nickolas3434 | Размер: 1.77 ГБ | Добавлен: 06 мар 2015
Раздают: 1    Качают: 2
Скачать торрент
Скачать торрент
Описание торрента

СообщениеДобавлено: 06 мар 2015 

Информация о фильме
Название: Красавцы-старшеклассники на страже Земли во имя Любви!
Оригинальное название: Boueibu / Binan Koukou Chikyuu Boueibu Love! / Cute High Earth Defense Club Love! / 防衛部 / 美男高校地球防衛部Love!
Страна: Япония
Год выхода: 2015
Жанр: комедия
Режиссер: Такамацу Синдзи / Takamatsu Shinji / 高松信司
Автор оригинала: Уматани Курари / Umatani Kurari / 馬谷くらり

О фильме: История повествует нам о жизни «Клуба Защитников Земли», в основном известном как «Ничего не делающий клуб».
Одним славным деньком двое его членов Эн и Ацуши, принимая ванну в открытом горячем источнике, неожиданно знакомятся с таинственным розовым существом Вомбатом, появившемся из ниоткуда и просящим весьма странные вещи: «Я хочу спасть эту звезду... Прошу, могли бы вы одолжить мне свою силу?» Однако странности на сем не заканчиваются, и неожиданно появляется еще один участник клуба Юмото, семья которого владеет этой самой купальней, и начинает судорожно тискать Вомбата.
На следующий день в школе два других члена клуба Ио и Рю также встречают Вомбата. После чего он дает всем пятерым браслеты и говорит, что теперь деятельностью их клуба является защита Земли!


Студия:

Продолжительность: ТВ (>12 эп.), 25 мин.
Перевод: Любительский (одноголосый)
Озвучка: loster01
Субтитры: отсутствуют
Полухардсаб: надписи, логотип
Перевод на русский: перевод: Seiya Loveless; редактор: Bel-chan; оформление: DeadMouse

Файл
Качество: WEBRip [HorribleSubs]
Формат: MP4
Видео: 1280 x 720 (16:9) at 23.976 fps, AVC (x264), High@L3.0, 2666 Kbps avg, 0.121 bit/pixel, 8 bit
Аудио: 44.1 kHz, AAC, 2 ch, 128 kbps avg

Релиз от:

Общее
Полное имя : [LE-Production]_Binan_Koukou_Chikyuu_Bouei-bu_Love!_[rus]_[1280x720_x264]_[loster01][LE-Production]_Binan_Koukou_Chikyuu_Bouei-bu_Love!_[01]_[rus]_[1280x720_x264]_[loster01].mp4
Формат : MPEG-4
Профиль формата : Base Media
Идентификатор кодека : isom
Размер файла : 481 Мбайт
Продолжительность : 24 м.
Общий поток : 2797 Кбит/сек
Дата кодирования : UTC 2015-01-08 09:53:53
Дата пометки : UTC 2015-01-08 09:53:53
Программа кодирования : Yamb 2.1.0.0 [http://yamb.unite-video.com]
Правообладатель : LE-Production

Видео
Идентификатор : 1
Формат : AVC
Формат/Информация : Advanced Video Codec
Профиль формата : High@L3.0
Параметр CABAC формата : Да
Параметр ReFrames формата : 4 кадры
Идентификатор кодека : avc1
Идентификатор кодека/Информация : Advanced Video Coding
Продолжительность : 24 м.
Вид битрейта : Переменный
Битрейт : 2666 Кбит/сек
Максимальный битрейт : 11,1 Мбит/сек
Ширина : 1280 пикс.
Высота : 720 пикс.
Соотношение сторон : 16:9
Режим частоты кадров : Постоянный
Частота кадров : 23,976 кадр/сек
Цветовое пространство : YUV
Подвыборка цветности : 4:2:0
Битовая глубина : 8 бит
Тип развёртки : Прогрессивная
Бит/(Пиксели*Кадры) : 0.121
Размер потока : 458 Мбайт (95%)
Библиотека кодирования : x264 core 130 r2273 b3065e6
Настройки программы : cabac=1 / ref=1 / deblock=1:1:1 / analyse=0x3:0x3 / me=dia / subme=1 / psy=1 / psy_rd=0.40:0.00 / mixed_ref=0 / me_range=16 / chroma_me=1 / trellis=0 / 8x8dct=1 / cqm=0 / deadzone=21,11 / fast_pskip=1 / chroma_qp_offset=0 / threads=12 / lookahead_threads=2 / sliced_threads=0 / nr=0 / decimate=1 / interlaced=0 / bluray_compat=0 / constrained_intra=0 / bframes=5 / b_pyramid=2 / b_adapt=1 / b_bias=0 / direct=1 / weightb=1 / open_gop=0 / weightp=1 / keyint=250 / keyint_min=23 / scenecut=40 / intra_refresh=0 / rc=crf / mbtree=0 / crf=19.0 / qcomp=0.60 / qpmin=0 / qpmax=69 / qpstep=4 / ip_ratio=1.40 / pb_ratio=1.30 / aq=1:0.60
Язык : Russian
Дата кодирования : UTC 2015-01-08 09:53:53
Дата пометки : UTC 2015-01-08 09:54:00

Аудио
Идентификатор : 2
Формат : AAC
Формат/Информация : Advanced Audio Codec
Профиль формата : LC
Идентификатор кодека : 40
Продолжительность : 24 м.
Вид битрейта : Переменный
Битрейт : 128 Кбит/сек
Максимальный битрейт : 133 Кбит/сек
Канал(ы) : 2 канала(ов)
Расположение каналов : Front: L R
Частота : 44,1 КГц
Метод сжатия : С потерями
Размер потока : 22,0 Мбайт (5%)
Язык : Russian
Дата кодирования : UTC 2015-01-08 09:54:00
Дата пометки : UTC 2015-01-08 09:54:00

01. In the Name of Love
02. Love Means Never Feeling Regret
03. Feel Love, Narcissus!
04. Cute Little Boys of Love and Youth

05. To Steal Love Without Regret
06. Love Is Something You Wear on Your Back
07. Love, Summer Camp, and Toothbrushes
08. Love Wanders
09. Love Is Stronger Than Pride







   Похожие торренты   Торрент   Размер 
В этой теме нет новых непрочитанных сообщений. Красавцы-старшеклассники на страже Земли во имя Любви! / Binan Koukou Chikyuu Boueibu Love! [TV] [01 из 12] (2015) WEBRip 720p | L1

11 | 8

930.24 МБ

В этой теме нет новых непрочитанных сообщений. Красавцы-старшеклассники на страже Земли во имя Любви! / Binan Koukou Chikyuu Boueibu Love! [TV] [01-03 из 12] (2015) WEBRip 720p | L1

10 | 3

1.36 ГБ

В этой теме нет новых непрочитанных сообщений. Красавцы-старшеклассники на страже Земли во имя Любви! / Binan Koukou Chikyuu Boueibu Love! [TV] [01 из 12] (2015) WEBRip 720p | L1

22 | 7

480.69 МБ

В этой теме нет новых непрочитанных сообщений. Завтра не умрёт никогда. На страже земли (2012) SATRip

0 | 1

285.59 МБ

В этой теме нет новых непрочитанных сообщений. Повесть о любви и тьме / A Tale of Love and Darkness (2015) WEBRip | L

37 | 0

1.39 ГБ

В этой теме нет новых непрочитанных сообщений. Парень-яойщик из старшей школы / Fudanshi Koukou Seikatsu [01-12 из 12] (2016) WEBRip 720p | L2

8 | 1

540.63 МБ

В этой теме нет новых непрочитанных сообщений. Дурман любви / Помешанный на любви / Addicted to Love (1997) HDTV 720p

9 | 2

4.22 ГБ




Вы не можете начинать темы
Вы не можете отвечать на сообщения
Вы не можете редактировать свои сообщения
Вы не можете удалять свои сообщения
Вы не можете добавлять вложения

Перейти:  
Для Мосгорсуда, Роскомнадзора и рекламодателей: mosgorsud-torrent[собачка]yandex.ru
 Вход
ppkBB3cker v.2 © 2008-2014 @ PPK
[ Time : 1.043s | 16 Queries | GZIP : Off ]

cron