img image001 image001 image001 image001 image001 image001 image001 image001 image001 image001 image001 image001 image001 image001 image001

Planets Sun Sun Sun
Статистика раздачи
Автор: Nickolas3434 | Размер: 5.75 ГБ | Добавлен: 08 мар 2015
Раздают: 83    Качают: 11
Скачать торрент
Скачать торрент
Описание торрента

СообщениеДобавлено: 08 мар 2015 


#77
Информация о фильме
    Русское название: Актриса тысячелетия
    Оригинальное название: Millennium Actress / Sennen Joyuu
    Год выхода: 2001
    Жанр: аниме, мультфильм, драма, мелодрама
    Режиссер: Сатоси Кон
    Выпущено: Япония
    Продолжительность: 01:26:39
    Перевод: Профессиональный (Многоголосый закадровый)


Сюжет фильма
    Десятилетиями Чиёко Фудживара была выдающейся актрисой, снимавшейся в фильмах различных жанров. Однажды ее высокогорную виллу посетил ее продюсер и хроникер, работающий над историей жизни и карьеры Чиёко. Он принес с собой маленький старый ключик, открывший многие тайны ее воспоминаний…


Файл
    Качество: BDRip 1080p (исходник Blu-ray Disc Remux)
    Видео: 1918x1036, 8514 Кбит/сек, 23,976 кадр/сек, AVC, x264, High@L4.1, 1.85:1, 0.179 Бит/[Пиксели*Кадры]
    Аудио 1: AC-3, 384 Кбит/сек, 6 канала(ов), 48,0 КГц - Многоголосый закадровый, MC Entertainment / Русский
    Аудио 2: AC-3, 640 Кбит/сек, 6 канала(ов), 48,0 КГц - Оригинал / Японский
    Субтитры: Русские | Полные, Английские | Полные
    Форсированные субтитры: Нет
    Чаптеры (Главы): Есть



Автор Рипа: Сообщество:



Format : Matroska
Format version : Version 2
File size : 5.75 GiB
Duration : 1h 26mn
Overall bit rate : 9 505 Kbps
Movie name : Актриса тысячелетия.(2001).BDRip.1080p.[envy]
Encoded date : UTC 2015-03-07 08:22:57
Writing application : mkvmerge v5.8.0 ('No Sleep / Pillow') built on Sep 2 2012 15:37:04
Writing library : libebml v1.2.3 + libmatroska v1.3.0
Video
ID : 1
Format : AVC
Format/Info : Advanced Video Codec
Format profile : High@L4.1
Format settings, CABAC : Yes
Format settings, ReFrames : 4 frames
Codec ID : V_MPEG4/ISO/AVC
Duration : 1h 26mn
Bit rate : 8 514 Kbps
Width : 1 918 pixels
Height : 1 036 pixels
Display aspect ratio : 1.85:1
Frame rate mode : Constant
Frame rate : 23.976 fps
Color space : YUV
Chroma subsampling : 4:2:0
Bit depth : 8 bits
Scan type : Progressive
Bits/(Pixel*Frame) : 0.179
Stream size : 5.02 GiB (87%)
Title : Актриса тысячелетия.(2001).BDRip.1080p.[envy]
Writing library : x264 core 144 r2525 40bb568
Encoding settings : cabac=1 / ref=4 / deblock=1:0:0 / analyse=0x3:0x133 / me=umh / subme=11 / psy=1 / psy_rd=1.00:0.00 / mixed_ref=1 / me_range=48 / chroma_me=1 / trellis=2 / 8x8dct=1 / cqm=0 / deadzone=21,11 / fast_pskip=0 / chroma_qp_offset=-2 / threads=12 / lookahead_threads=1 / sliced_threads=0 / nr=0 / decimate=1 / interlaced=0 / bluray_compat=0 / constrained_intra=0 / bframes=6 / b_pyramid=2 / b_adapt=2 / b_bias=0 / direct=3 / weightb=1 / open_gop=0 / weightp=2 / keyint=240 / keyint_min=23 / scenecut=40 / intra_refresh=0 / rc=2pass / mbtree=0 / bitrate=8514 / ratetol=2.0 / qcomp=0.60 / qpmin=0 / qpmax=69 / qpstep=4 / cplxblur=20.0 / qblur=0.5 / ip_ratio=1.40 / pb_ratio=1.30 / aq=2:1.00
Language : English
Default : Yes
Forced : No
Audio #1
ID : 2
Format : AC-3
Format/Info : Audio Coding 3
Mode extension : CM (complete main)
Format settings, Endianness : Big
Codec ID : A_AC3
Duration : 1h 26mn
Bit rate mode : Constant
Bit rate : 384 Kbps
Channel(s) : 6 channels
Channel positions : Front: L C R, Side: L R, LFE
Sampling rate : 48.0 KHz
Bit depth : 16 bits
Compression mode : Lossy
Stream size : 238 MiB (4%)
Title : MVO MC Entertainment
Default : Yes
Forced : No
Audio #2
ID : 3
Format : AC-3
Format/Info : Audio Coding 3
Mode extension : CM (complete main)
Format settings, Endianness : Big
Codec ID : A_AC3
Duration : 1h 26mn
Bit rate mode : Constant
Bit rate : 640 Kbps
Channel(s) : 6 channels
Channel positions : Front: L C R, Side: L R, LFE
Sampling rate : 48.0 KHz
Bit depth : 16 bits
Compression mode : Lossy
Stream size : 397 MiB (7%)
Title : Jpn
Language : Japanese
Default : No
Forced : No
Text #1
ID : 4
Format : UTF-8
Codec ID : S_TEXT/UTF8
Codec ID/Info : UTF-8 Plain Text
Title : Rus full MC Entertainment
Language : Russian
Default : No
Forced : No
Text #2
ID : 5
Format : UTF-8
Codec ID : S_TEXT/UTF8
Codec ID/Info : UTF-8 Plain Text
Title : Eng full
Language : English
Default : No
Forced : No
Menu
00:00:00.000 : en:00:00:00.000
00:02:09.004 : en:00:02:09.004
00:08:51.990 : en:00:08:51.990
00:12:27.538 : en:00:12:27.538
00:17:16.077 : en:00:17:16.077
00:20:33.816 : en:00:20:33.816
00:25:01.792 : en:00:25:01.792
00:26:51.443 : en:00:26:51.443
00:31:21.546 : en:00:31:21.546
00:32:27.904 : en:00:32:27.904
00:36:29.979 : en:00:36:29.979
00:40:12.493 : en:00:40:12.493
00:42:17.660 : en:00:42:17.660
00:47:39.690 : en:00:47:39.690
00:51:24.873 : en:00:51:24.873
00:56:25.048 : en:00:56:25.048
01:04:50.011 : en:01:04:50.011
01:12:48.197 : en:01:12:48.197
01:15:50.129 : en:01:15:50.129
01:18:06.056 : en:01:18:06.056
01:22:30.571 : en:01:22:30.571


#77



   Похожие торренты   Торрент   Размер 
В этой теме нет новых непрочитанных сообщений. Плохая актриса / Bad Actress (2010) HDTV 1080p от RG MixTorrent | P2

0 | 3

1.86 ГБ

В этой теме нет новых непрочитанных сообщений. Плохая актриса / Bad Actress (2011) DVDRip | НТВ+

2 | 1

705.81 МБ

В этой теме нет новых непрочитанных сообщений. Плохая актриса / Bad Actress (2011) DVDRip

5 | 1

1.37 ГБ

В этой теме нет новых непрочитанных сообщений. Плохая актриса / Bad Actress (2011) HDTVRip-AVC от MediaClub | P2

0 | 1

1.32 ГБ

В этой теме нет новых непрочитанных сообщений. Плохая актриса / Bad Actress (2011) HDTVRip 720p от MediaClub | P2

1 | 1

2.01 ГБ

В этой теме нет новых непрочитанных сообщений. Секреты Тысячелетия 2: Ожерелье Роксаны / Millennium Secrets 2: Roxanne's Necklace (2011) PC

5 | 4

271.22 МБ

В этой теме нет новых непрочитанных сообщений. Секреты Тысячелетия: Проклятие Изумруда / Millennium Secrets: Emerald Curse (2010) PC

4 | 5

135.15 МБ




Вы не можете начинать темы
Вы не можете отвечать на сообщения
Вы не можете редактировать свои сообщения
Вы не можете удалять свои сообщения
Вы не можете добавлять вложения

Перейти:  
Для Мосгорсуда, Роскомнадзора и рекламодателей: mosgorsud-torrent[собачка]yandex.ru
 Вход
ppkBB3cker v.2 © 2008-2014 @ PPK
[ Time : 0.049s | 15 Queries | GZIP : Off ]

Торрент трекер RUTOR.IN, Не можете зайти на rutor.org? Какой новый адрес рутор? Какое зеркало рутор? Не работает rutor.org и зеркала? Тогда наш торрент специально для вас. Rutor.in неофициальное зеркало rutor. В случае если у Вас заблокирован rutor или вдруг Вы не можете на него зайти, то Вы без труда сможете скачать бесплатно и без рекламы последние новинки кино, игр, сериалов и прочего у нас, на Rutor.in. Не нужно использовать прокси, чтобы зайти на рутор, достаточно воспользоваться нашим ресурсом. Все новые фильмы, игры, сериалы, книги и музыка за 2013 и 2014 годы через торрент бесплатно. Скачивайте фильмы в хорошем качестве, игры для пк, xbox, playstation без регистрации. У нас вы найдете новые Зарубежные сериалы и Русские сериалы 2013, 2014, 2015 годов. Оставайтесь с нами, качайте любимые фильмы, игры, сериалы, книги и музыку.