img image001 image001 image001 image001 image001 image001 image001 image001 image001 image001 image001 image001 image001 image001 image001

Planets Sun Sun Sun
Статистика раздачи
Автор: Nickolas3434 | Размер: 1.36 ГБ | Добавлен: 16 мар 2015
Раздают: 9    Качают: 6
Скачать торрент
Скачать торрент
Описание торрента

СообщениеДобавлено: 16 мар 2015 

Информация о фильме
Название: Девственная Мария / Непорочная Мария
Оригинальное название: Maria the Virgin Witch / Junketsu no Maria / 純潔のマリア
Страна: Япония
Год выхода: 2015
Жанр: приключения, фэнтези
Режиссер: Танигути Горо / Taniguchi Goro / 谷口悟朗
Автор оригинала: Исикава Масаюки / Ishikawa Masayuki / 石川雅之
О фильме: История следует за Марией, очень мощной ведьмой которая жила во Франции в период "Столетней Войны". Она ненавидит войну, поэтому она всячески препятствует ей используя свои мощные магические способности. Её вмешательство со своими суккубом Артемис и демоном Приапосом привлекают внимание небес, и Архангел Михаил издает указ. Когда Мария потеряет свою девственность, она лишится своей магической силы. Красивый ангел по имени Езекиль предположительно должен следить за тем что бы Мария не использовала магию на людях, но она продолжает ее использовать не смотря ни на что.
Студия:
Продолжительность: ТВ (12 эп.), 25 мин.
Перевод: Любительский (двухголосый)
Озвучка: Emeri & loster01
Субтитры: отсутствуют
Полухардсаб: надписи, логотип
Перевод на русский: Semyon44
Файл
Качество: HDTVRip [Leopard-Raws]
Формат: MP4
Видео: 1280 x 720 (16:9) at 23.976 fps, AVC (x264), High@L3.0, 2777 Kbps avg, 0.126 bit/pixel, 8 bit
Аудио: 48.0 kHz, AAC, 2 ch, 256 kbps avg
Релиз от:
Общее
Полное имя : [LE-Production]_Junketsu_no_Maria_[rus]_[1280x720_x264]_[loster01_&_Emeri][LE-Production]_Junketsu_no_Maria_[01]_[rus]_[1280x720_x264]_[loster01_&_Emeri].mp4
Формат : MPEG-4
Профиль формата : Base Media
Идентификатор кодека : isom
Размер файла : 524 Мбайт
Продолжительность : 24 м.
Общий поток : 3037 Кбит/сек
Дата кодирования : UTC 2015-01-20 19:32:36
Дата пометки : UTC 2015-01-20 19:32:36
Программа кодирования : Yamb 2.1.0.0 [http://yamb.unite-video.com]
Правообладатель : LE-Production
Видео
Идентификатор : 1
Формат : AVC
Формат/Информация : Advanced Video Codec
Профиль формата : High@L3.0
Параметр CABAC формата : Да
Параметр ReFrames формата : 4 кадры
Идентификатор кодека : avc1
Идентификатор кодека/Информация : Advanced Video Coding
Продолжительность : 24 м.
Вид битрейта : Переменный
Битрейт : 2777 Кбит/сек
Максимальный битрейт : 14,0 Мбит/сек
Ширина : 1280 пикс.
Высота : 720 пикс.
Соотношение сторон : 16:9
Режим частоты кадров : Постоянный
Частота кадров : 23,976 кадр/сек
Цветовое пространство : YUV
Подвыборка цветности : 4:2:0
Битовая глубина : 8 бит
Тип развёртки : Прогрессивная
Бит/(Пиксели*Кадры) : 0.126
Размер потока : 479 Мбайт (91%)
Библиотека кодирования : x264 core 130 r2273 b3065e6
Настройки программы : cabac=1 / ref=1 / deblock=1:1:1 / analyse=0x3:0x3 / me=dia / subme=1 / psy=1 / psy_rd=0.40:0.00 / mixed_ref=0 / me_range=16 / chroma_me=1 / trellis=0 / 8x8dct=1 / cqm=0 / deadzone=21,11 / fast_pskip=1 / chroma_qp_offset=0 / threads=12 / lookahead_threads=2 / sliced_threads=0 / nr=0 / decimate=1 / interlaced=0 / bluray_compat=0 / constrained_intra=0 / bframes=5 / b_pyramid=2 / b_adapt=1 / b_bias=0 / direct=1 / weightb=1 / open_gop=0 / weightp=1 / keyint=250 / keyint_min=23 / scenecut=40 / intra_refresh=0 / rc=crf / mbtree=0 / crf=19.0 / qcomp=0.60 / qpmin=0 / qpmax=69 / qpstep=4 / ip_ratio=1.40 / pb_ratio=1.30 / aq=1:0.60
Язык : Russian
Дата кодирования : UTC 2015-01-20 19:32:36
Дата пометки : UTC 2015-01-20 19:32:43
Аудио
Идентификатор : 2
Формат : AAC
Формат/Информация : Advanced Audio Codec
Профиль формата : LC
Идентификатор кодека : 40
Продолжительность : 24 м.
Вид битрейта : Переменный
Битрейт : 256 Кбит/сек
Максимальный битрейт : 262 Кбит/сек
Канал(ы) : 2 канала(ов)
Расположение каналов : Front: L R
Частота : 48,0 КГц
Метод сжатия : С потерями
Размер потока : 44,1 Мбайт (8%)
Язык : Russian
Дата кодирования : UTC 2015-01-20 19:32:42
Дата пометки : UTC 2015-01-20 19:32:43
01. Непорочная Дева.
02. Против всего Мира.
03. Верой, а не Оружием.
04. Помни, что смертен.
05. Храбрость и Благоразумие.
06. Втайне.
07. Войнa кормит сaмa себя.
08. Человек Человеку Волк.






   Похожие торренты   Торрент   Размер 
В этой теме нет новых непрочитанных сообщений. Непорочная Мария / Junketsu no Maria [01 из 12] (2015) HDTVRip 720p

79 | 9

391.33 МБ

В этой теме нет новых непрочитанных сообщений. Непорочная Мария / Junketsu no Maria [01-02 из 12] (2015) HDTVRip 720p

11 | 2

757.84 МБ

В этой теме нет новых непрочитанных сообщений. Непорочная Мария / Junketsu no Maria [01-12 из 12] (2015) HDTVRip 720p | L

33 | 22

4.44 ГБ

В этой теме нет новых непрочитанных сообщений. Непорочная Мария / Junketsu no Maria [TV] [01 из 12] (2015) HDTVRip 720p | AniFilm

25 | 7

427.01 МБ

В этой теме нет новых непрочитанных сообщений. Непорочная Мария / Junketsu no Maria [TV] [01 из 12] (2015) HDTVRip 720p | AniFilm

5 | 3

1.17 ГБ

В этой теме нет новых непрочитанных сообщений. Непорочная Мария / Junketsu no Maria [TV] [01 из 12] (2015) HDTVRip 720p | AniFilm

13 | 6

1.56 ГБ

В этой теме нет новых непрочитанных сообщений. Непорочная Мария / Junketsu no Maria [TV] [01 из 12] (2015) HDTVRip 720p | AniFilm

11 | 4

1.93 ГБ




Вы не можете начинать темы
Вы не можете отвечать на сообщения
Вы не можете редактировать свои сообщения
Вы не можете удалять свои сообщения
Вы не можете добавлять вложения

Перейти:  
Для Мосгорсуда, Роскомнадзора и рекламодателей: mosgorsud-torrent[собачка]yandex.ru
 Вход
ppkBB3cker v.2 © 2008-2014 @ PPK
[ Time : 0.025s | 15 Queries | GZIP : Off ]

Торрент трекер RUTOR.IN, Не можете зайти на rutor.org? Какой новый адрес рутор? Какое зеркало рутор? Не работает rutor.org и зеркала? Тогда наш торрент специально для вас. Rutor.in неофициальное зеркало rutor. В случае если у Вас заблокирован rutor или вдруг Вы не можете на него зайти, то Вы без труда сможете скачать бесплатно и без рекламы последние новинки кино, игр, сериалов и прочего у нас, на Rutor.in. Не нужно использовать прокси, чтобы зайти на рутор, достаточно воспользоваться нашим ресурсом. Все новые фильмы, игры, сериалы, книги и музыка за 2013 и 2014 годы через торрент бесплатно. Скачивайте фильмы в хорошем качестве, игры для пк, xbox, playstation без регистрации. У нас вы найдете новые Зарубежные сериалы и Русские сериалы 2013, 2014, 2015 годов. Оставайтесь с нами, качайте любимые фильмы, игры, сериалы, книги и музыку.