img image001 image001 image001 image001 image001 image001 image001 image001 image001 image001 image001 image001 image001 image001 image001

Planets Sun Sun Sun
Статистика раздачи
Автор: Nickolas3434 | Размер: 10.16 ГБ | Добавлен: 31 мар 2015
Раздают: 54    Качают: 23
Скачать торрент
Скачать торрент
Описание торрента

СообщениеДобавлено: 31 мар 2015 

Информация о фильме
[b]Название: [/b]Мастера меча онлайн II
[b]Оригинальное название: [/b]Sword Art Online II / ソードアート・オンラインII
[b]Страна: [/b]Япония [img]http://linkme.ufanet.ru/images/c3/c3276ea38c3dc8e4072303c547f220ef.gif[/img]
[b]Год выхода: [/b]2014
[b]Жанр: [/b] Приключения, фэнтези, романтика
[b]Режиссер: [/b]Ито Томохико / Ito Tomohiko / 伊藤智彦
[b]Автор оригинала:[/b] Кавахара Рэки / Kawahara Reki / 川原礫
[b]О фильме:[/b] Мрачный гений Каяба сполна расплатился за свои ошибки, прекрасная Асуна освобождена, негодяй Суго наказан, но Мировое Древо все так же высится в Альфхейме, а игровых виртуальных миров с каждым годом становится больше. Да, человечество расширяет среду обитания, куда можно сбежать от непосильного гнета реальности, попутно многое узнавая о работе собственного мозга и разума. Что нельзя остановить, лучше возглавить: примерно так юный Кадзуто Киригая, больше известный как Кирито, поведал подруге на очередном свидании. Асуна, разумеется, согласилась, ведь главного-то милый ей не сказал! А забыл лукавый Кирито рассказать о том, что подписался на участие в новомодной игре «Буря стволов онлайн» - соревновательном шутере, где заработанную игровую валюту можно переводить в привычную. Неудивительно, что кругом полно сильных игроков, да вот кто-то нехороший, действуя из игры, стал убивать их в реальном мире. Это считалось невозможным, ведь геймеры давно сменили шлемы-тостеры времен САО на «абсолютно безопасные» интерфейсы. Ниточки явно тянутся из прошлого – тут и пригодится герой в черном, который не смог отказать другу из незаметных, но компетентных органов. Ради благого дела можно и по старинке мечом помахать, и стрелять поучиться, и даже заглянуть в «родные миры» – жить-то с Асуной все равно на что-то надо! © Hollow, World Art
[b]Студия:[/b] [img]http://i63.fastpic.ru/big/2014/0706/c3/b4abd96498705659460315f3cd695dc3.jpg[/img]
[url=http://www.imdb.com/title/tt3433708/][img]http://new-rutor.org/parse/s.rutor.org/imdb/pic/3433708.gif[/img][/url]
[b]Продолжительность: [/b]~ 00:23:40
[b]Перевод: [/b]Любительский (двухголосый)
[b]Озвучили:[/b] Zendos & Eladiel
[b]Сборка контейнера:[/b] Eugeo
Файл
[b]Формат:[/b] mp4
[b]Качество: [/b]HDTVRip 720p
[b]Видео: [/b]H.264; 1280x720; ~ 2000 Kbps, 23.976fps; (8 bit)
[b]Аудио 1[/b]: MP3 48000 Hz, 2.0, 224 kbps Язык Русский
[b]Аудио 2[/b]: MP3 48000 Hz, 2.0, 192 kbps Язык Японский
[b]Субтитры: [/b](внешние ASS) Язык субтитров русский ; Перевод: Evafan
[spoiler="Инфо-файл"]
Общее
Полное имя : K:KinozalSword.Art.Online.II.2014.x264.HDTVRip.720pSword.Art.Online.II.(01.serija).2014.x264.HDTVRip.720p.ass
Размер файла : 54,2 Кбайт
Общее
Полное имя : K:KinozalSword.Art.Online.II.2014.x264.HDTVRip.720pSword.Art.Online.II.(01.serija).2014.x264.HDTVRip.720p.mp4
Формат : MPEG-4
Профиль формата : Base Media
Идентификатор кодека : isom
Размер файла : 458 Мбайт
Продолжительность : 23 м.
Общий поток : 2707 Кбит/сек
Дата кодирования : UTC 2014-07-08 23:30:02
Дата пометки : UTC 2014-07-08 23:30:02
Программа кодирования : Yamb 2.1.0.0 [http://yamb.unite-video.com]
Видео
Идентификатор : 1
Формат : AVC
Формат/Информация : Advanced Video Codec
Профиль формата : High@L5.0
Параметр CABAC формата : Да
Параметр ReFrames формата : 16 кадров
Идентификатор кодека : avc1
Идентификатор кодека/Информация : Advanced Video Coding
Продолжительность : 23 м.
Битрейт : 2287 Кбит/сек
Максимальный битрейт : 13,4 Мбит/сек
Ширина : 1280 пикселей
Высота : 720 пикселей
Соотношение сторон : 16:9
Режим частоты кадров : Постоянный
Частота кадров : 23,976 кадра/сек
Цветовое пространство : YUV
Субдискретизация насыщенности : 4:2:0
Битовая глубина : 8 бит
Тип развёртки : Прогрессивная
Бит/(Пиксели*Кадры) : 0.104
Размер потока : 387 Мбайт (84%)
Библиотека кодирования : x264 core 119 r2106 07efeb4
Настройки программы : cabac=1 / ref=16 / deblock=1:1:1 / analyse=0x3:0x113 / me=umh / subme=8 / psy=1 / psy_rd=0.40:0.00 / mixed_ref=1 / me_range=16 / chroma_me=1 / trellis=1 / 8x8dct=1 / cqm=0 / deadzone=21,11 / fast_pskip=1 / chroma_qp_offset=-2 / threads=9 / sliced_threads=0 / nr=0 / decimate=1 / interlaced=0 / bluray_compat=0 / constrained_intra=0 / bframes=16 / b_pyramid=2 / b_adapt=2 / b_bias=0 / direct=3 / weightb=1 / open_gop=0 / weightp=2 / keyint=250 / keyint_min=23 / scenecut=40 / intra_refresh=0 / rc_lookahead=50 / rc=2pass / mbtree=1 / bitrate=2287 / ratetol=1.0 / qcomp=0.60 / qpmin=0 / qpmax=69 / qpstep=4 / cplxblur=20.0 / qblur=0.5 / ip_ratio=1.40 / aq=1:0.60
Дата кодирования : UTC 2014-07-09 21:35:24
Дата пометки : UTC 2014-07-08 23:30:05
Аудио #1
Идентификатор : 2
Формат : MPEG Audio
Версия формата : Version 1
Профиль формата : Layer 3
Режим : Joint stereo
Идентификатор кодека : 6B
Продолжительность : 23 м.
Вид битрейта : Постоянный
Битрейт : 224 Кбит/сек
Максимальный битрейт : 231 Кбит/сек
Каналы : 2 канала
Частота : 48,0 КГц
Метод сжатия : С потерями
Задержка видео : 125 мс.
Размер потока : 37,9 Мбайт (8%)
Библиотека кодирования : LAME3.99.5
Язык : Russian
Дата кодирования : UTC 2014-07-08 23:30:03
Дата пометки : UTC 2014-07-08 23:30:05
Аудио #2
Идентификатор : 3
Формат : MPEG Audio
Версия формата : Version 1
Профиль формата : Layer 3
Режим : Joint stereo
Идентификатор кодека : 6B
Продолжительность : 23 м.
Duration_FirstFrame : -16 мс.
Вид битрейта : Постоянный
Битрейт : 192 Кбит/сек
Максимальный битрейт : 202 Кбит/сек
Каналы : 2 канала
Частота : 48,0 КГц
Метод сжатия : С потерями
Задержка видео : 125 мс.
Размер потока : 32,5 Мбайт (7%)
Библиотека кодирования : LAME3.99.5
Язык : Japanese
Дата кодирования : UTC 2014-07-08 23:30:04
Дата пометки : UTC 2014-07-08 23:30:05
Общее
Полное имя : K:KinozalSword.Art.Online.II.2014.x264.HDTVRip.720pSword.Art.Online.II.(02.serija).2014.x264.HDTVRip.720p.ass
Размер файла : 29,6 Кбайт
Общее
Полное имя : K:KinozalSword.Art.Online.II.2014.x264.HDTVRip.720pSword.Art.Online.II.(02.serija).2014.x264.HDTVRip.720p.mp4
Формат : MPEG-4
Профиль формата : Base Media
Идентификатор кодека : isom
Размер файла : 413 Мбайт
Продолжительность : 23 м.
Общий поток : 2440 Кбит/сек
Дата кодирования : UTC 2014-07-19 01:29:23
Дата пометки : UTC 2014-07-19 01:29:23
Программа кодирования : Yamb 2.1.0.0 [http://yamb.unite-video.com]
Видео
Идентификатор : 1
Формат : AVC
Формат/Информация : Advanced Video Codec
Профиль формата : High@L5.0
Параметр CABAC формата : Да
Параметр ReFrames формата : 16 кадров
Идентификатор кодека : avc1
Идентификатор кодека/Информация : Advanced Video Coding
Продолжительность : 23 м.
Битрейт : 2020 Кбит/сек
Максимальный битрейт : 13,6 Мбит/сек
Ширина : 1280 пикселей
Высота : 720 пикселей
Соотношение сторон : 16:9
Режим частоты кадров : Постоянный
Частота кадров : 23,976 кадра/сек
Цветовое пространство : YUV
Субдискретизация насыщенности : 4:2:0
Битовая глубина : 8 бит
Тип развёртки : Прогрессивная
Бит/(Пиксели*Кадры) : 0.091
Размер потока : 342 Мбайт (83%)
Библиотека кодирования : x264 core 119 r2106 07efeb4
Настройки программы : cabac=1 / ref=16 / deblock=1:1:1 / analyse=0x3:0x133 / me=umh / subme=10 / psy=1 / psy_rd=0.40:0.00 / mixed_ref=1 / me_range=24 / chroma_me=1 / trellis=2 / 8x8dct=1 / cqm=0 / deadzone=21,11 / fast_pskip=1 / chroma_qp_offset=-2 / threads=9 / sliced_threads=0 / nr=0 / decimate=1 / interlaced=0 / bluray_compat=0 / constrained_intra=0 / bframes=16 / b_pyramid=2 / b_adapt=2 / b_bias=0 / direct=3 / weightb=1 / open_gop=0 / weightp=2 / keyint=250 / keyint_min=23 / scenecut=40 / intra_refresh=0 / rc_lookahead=60 / rc=2pass / mbtree=1 / bitrate=2020 / ratetol=1.0 / qcomp=0.60 / qpmin=0 / qpmax=69 / qpstep=4 / cplxblur=20.0 / qblur=0.5 / ip_ratio=1.40 / aq=1:0.60
Дата кодирования : UTC 2014-07-20 00:34:25
Дата пометки : UTC 2014-07-19 01:29:30
Аудио #1
Идентификатор : 2
Формат : MPEG Audio
Версия формата : Version 1
Профиль формата : Layer 3
Режим : Joint stereo
Идентификатор кодека : 6B
Продолжительность : 23 м.
Вид битрейта : Постоянный
Битрейт : 224 Кбит/сек
Максимальный битрейт : 231 Кбит/сек
Каналы : 2 канала
Частота : 48,0 КГц
Метод сжатия : С потерями
Задержка видео : 83 мс.
Размер потока : 37,9 Мбайт (9%)
Библиотека кодирования : LAME3.99.5
Язык : Russian
Дата кодирования : UTC 2014-07-19 01:29:29
Дата пометки : UTC 2014-07-19 01:29:30
Аудио #2
Идентификатор : 3
Формат : MPEG Audio
Версия формата : Version 1
Профиль формата : Layer 3
Режим : Joint stereo
Идентификатор кодека : 6B
Продолжительность : 23 м.
Вид битрейта : Постоянный
Битрейт : 192 Кбит/сек
Максимальный битрейт : 198 Кбит/сек
Каналы : 2 канала
Частота : 48,0 КГц
Метод сжатия : С потерями
Задержка видео : 83 мс.
Размер потока : 32,5 Мбайт (8%)
Библиотека кодирования : LAME3.99.5
Язык : Japanese
Дата кодирования : UTC 2014-07-19 01:29:29
Дата пометки : UTC 2014-07-19 01:29:30
Общее
Полное имя : K:KinozalSword.Art.Online.II.2014.x264.HDTVRip.720pSword.Art.Online.II.(03.serija).2014.x264.HDTVRip.720p.ass
Размер файла : 40,5 Кбайт
Общее
Полное имя : K:KinozalSword.Art.Online.II.2014.x264.HDTVRip.720pSword.Art.Online.II.(03.serija).2014.x264.HDTVRip.720p.mp4
Формат : MPEG-4
Профиль формата : Base Media
Идентификатор кодека : isom
Размер файла : 337 Мбайт
Продолжительность : 23 м.
Общий поток : 1988 Кбит/сек
Дата кодирования : UTC 2014-08-05 20:14:20
Дата пометки : UTC 2014-08-05 20:14:20
Программа кодирования : Yamb 2.1.0.0 [http://yamb.unite-video.com]
Видео
Идентификатор : 1
Формат : AVC
Формат/Информация : Advanced Video Codec
Профиль формата : High@L5.0
Параметр CABAC формата : Да
Параметр ReFrames формата : 16 кадров
Идентификатор кодека : avc1
Идентификатор кодека/Информация : Advanced Video Coding
Продолжительность : 23 м.
Битрейт : 1570 Кбит/сек
Максимальный битрейт : 12,8 Мбит/сек
Ширина : 1280 пикселей
Высота : 720 пикселей
Соотношение сторон : 16:9
Режим частоты кадров : Постоянный
Частота кадров : 23,976 кадра/сек
Цветовое пространство : YUV
Субдискретизация насыщенности : 4:2:0
Битовая глубина : 8 бит
Тип развёртки : Прогрессивная
Бит/(Пиксели*Кадры) : 0.071
Размер потока : 266 Мбайт (79%)
Библиотека кодирования : x264 core 119 r2106 07efeb4
Настройки программы : cabac=1 / ref=16 / deblock=1:1:1 / analyse=0x3:0x133 / me=umh / subme=7 / psy=1 / psy_rd=0.40:0.00 / mixed_ref=1 / me_range=16 / chroma_me=1 / trellis=2 / 8x8dct=1 / cqm=0 / deadzone=21,11 / fast_pskip=0 / chroma_qp_offset=-2 / threads=9 / sliced_threads=0 / nr=0 / decimate=1 / interlaced=0 / bluray_compat=0 / constrained_intra=0 / bframes=16 / b_pyramid=2 / b_adapt=1 / b_bias=0 / direct=3 / weightb=1 / open_gop=0 / weightp=2 / keyint=250 / keyint_min=23 / scenecut=40 / intra_refresh=0 / rc_lookahead=50 / rc=crf / mbtree=1 / crf=15.9 / qcomp=0.60 / qpmin=0 / qpmax=69 / qpstep=4 / ip_ratio=1.40 / aq=1:0.60
Дата кодирования : UTC 2014-08-06 18:55:03
Дата пометки : UTC 2014-08-05 20:14:29
Аудио #1
Идентификатор : 2
Формат : MPEG Audio
Версия формата : Version 1
Профиль формата : Layer 3
Режим : Joint stereo
Идентификатор кодека : 6B
Продолжительность : 23 м.
Вид битрейта : Постоянный
Битрейт : 224 Кбит/сек
Максимальный битрейт : 231 Кбит/сек
Каналы : 2 канала
Частота : 48,0 КГц
Метод сжатия : С потерями
Задержка видео : 125 мс.
Размер потока : 37,9 Мбайт (11%)
Библиотека кодирования : LAME3.99.5
Язык : Russian
Дата кодирования : UTC 2014-08-05 20:14:25
Дата пометки : UTC 2014-08-05 20:14:29
Аудио #2
Идентификатор : 3
Формат : MPEG Audio
Версия формата : Version 1
Профиль формата : Layer 3
Режим : Joint stereo
Идентификатор кодека : 6B
Продолжительность : 23 м.
Вид битрейта : Постоянный
Битрейт : 192 Кбит/сек
Максимальный битрейт : 198 Кбит/сек
Каналы : 2 канала
Частота : 48,0 КГц
Метод сжатия : С потерями
Задержка видео : 125 мс.
Размер потока : 32,5 Мбайт (10%)
Библиотека кодирования : LAME3.99.5
Язык : Japanese
Дата кодирования : UTC 2014-08-05 20:14:29
Дата пометки : UTC 2014-08-05 20:14:29
Общее
Полное имя : K:KinozalSword.Art.Online.II.2014.x264.HDTVRip.720pSword.Art.Online.II.(04.serija).2014.x264.HDTVRip.720p.ass
Размер файла : 43,2 Кбайт
Общее
Полное имя : K:KinozalSword.Art.Online.II.2014.x264.HDTVRip.720pSword.Art.Online.II.(04.serija).2014.x264.HDTVRip.720p.mp4
Формат : MPEG-4
Профиль формата : Base Media
Идентификатор кодека : isom
Размер файла : 386 Мбайт
Продолжительность : 23 м.
Общий поток : 2283 Кбит/сек
Дата кодирования : UTC 2014-08-05 20:50:09
Дата пометки : UTC 2014-08-05 20:50:09
Программа кодирования : Yamb 2.1.0.0 [http://yamb.unite-video.com]
Видео
Идентификатор : 1
Формат : AVC
Формат/Информация : Advanced Video Codec
Профиль формата : High@L5.0
Параметр CABAC формата : Да
Параметр ReFrames формата : 16 кадров
Идентификатор кодека : avc1
Идентификатор кодека/Информация : Advanced Video Coding
Продолжительность : 23 м.
Битрейт : 1865 Кбит/сек
Максимальный битрейт : 11,4 Мбит/сек
Ширина : 1280 пикселей
Высота : 720 пикселей
Соотношение сторон : 16:9
Режим частоты кадров : Постоянный
Частота кадров : 23,976 кадра/сек
Цветовое пространство : YUV
Субдискретизация насыщенности : 4:2:0
Битовая глубина : 8 бит
Тип развёртки : Прогрессивная
Бит/(Пиксели*Кадры) : 0.084
Размер потока : 316 Мбайт (82%)
Библиотека кодирования : x264 core 119 r2106 07efeb4
Настройки программы : cabac=1 / ref=16 / deblock=1:1:1 / analyse=0x3:0x133 / me=umh / subme=7 / psy=1 / psy_rd=0.40:0.00 / mixed_ref=1 / me_range=16 / chroma_me=1 / trellis=2 / 8x8dct=1 / cqm=0 / deadzone=21,11 / fast_pskip=0 / chroma_qp_offset=-2 / threads=9 / sliced_threads=0 / nr=0 / decimate=1 / interlaced=0 / bluray_compat=0 / constrained_intra=0 / bframes=16 / b_pyramid=2 / b_adapt=1 / b_bias=0 / direct=3 / weightb=1 / open_gop=0 / weightp=2 / keyint=250 / keyint_min=23 / scenecut=40 / intra_refresh=0 / rc_lookahead=50 / rc=crf / mbtree=1 / crf=15.9 / qcomp=0.60 / qpmin=0 / qpmax=69 / qpstep=4 / ip_ratio=1.40 / aq=1:0.60
Дата кодирования : UTC 2014-08-06 18:12:38
Дата пометки : UTC 2014-08-05 20:50:17
Аудио #1
Идентификатор : 2
Формат : MPEG Audio
Версия формата : Version 1
Профиль формата : Layer 3
Режим : Joint stereo
Расширение режима : MS Stereo
Идентификатор кодека : 6B
Продолжительность : 23 м.
Вид битрейта : Постоянный
Битрейт : 224 Кбит/сек
Максимальный битрейт : 231 Кбит/сек
Каналы : 2 канала
Частота : 48,0 КГц
Метод сжатия : С потерями
Задержка видео : 125 мс.
Размер потока : 37,9 Мбайт (10%)
Библиотека кодирования : LAME3.99.5
Язык : Russian
Дата кодирования : UTC 2014-08-05 20:50:16
Дата пометки : UTC 2014-08-05 20:50:17
Аудио #2
Идентификатор : 3
Формат : MPEG Audio
Версия формата : Version 1
Профиль формата : Layer 3
Режим : Joint stereo
Расширение режима : MS Stereo
Идентификатор кодека : 6B
Продолжительность : 23 м.
Вид битрейта : Постоянный
Битрейт : 192 Кбит/сек
Максимальный битрейт : 198 Кбит/сек
Каналы : 2 канала
Частота : 48,0 КГц
Метод сжатия : С потерями
Задержка видео : 125 мс.
Размер потока : 32,5 Мбайт (8%)
Библиотека кодирования : LAME3.99.5
Язык : Japanese
Дата кодирования : UTC 2014-08-05 20:50:16
Дата пометки : UTC 2014-08-05 20:50:17
Общее
Полное имя : K:KinozalSword.Art.Online.II.2014.x264.HDTVRip.720pSword.Art.Online.II.(05.serija).2014.x264.HDTVRip.720p.ass
Размер файла : 38,4 Кбайт
Общее
Полное имя : K:KinozalSword.Art.Online.II.2014.x264.HDTVRip.720pSword.Art.Online.II.(05.serija).2014.x264.HDTVRip.720p.mp4
Формат : MPEG-4
Профиль формата : Base Media
Идентификатор кодека : isom
Размер файла : 512 Мбайт
Продолжительность : 23 м.
Общий поток : 3027 Кбит/сек
Дата кодирования : UTC 2014-08-08 22:43:24
Дата пометки : UTC 2014-08-08 22:43:24
Программа кодирования : Yamb 2.1.0.0 [http://yamb.unite-video.com]
Видео
Идентификатор : 1
Формат : AVC
Формат/Информация : Advanced Video Codec
Профиль формата : High@L4.1
Параметр CABAC формата : Да
Параметр ReFrames формата : 4 кадра
Идентификатор кодека : avc1
Идентификатор кодека/Информация : Advanced Video Coding
Продолжительность : 23 м.
Битрейт : 2609 Кбит/сек
Максимальный битрейт : 15,9 Мбит/сек
Ширина : 1280 пикселей
Высота : 720 пикселей
Соотношение сторон : 16:9
Режим частоты кадров : Постоянный
Частота кадров : 23,976 кадра/сек
Цветовое пространство : YUV
Субдискретизация насыщенности : 4:2:0
Битовая глубина : 8 бит
Тип развёртки : Прогрессивная
Бит/(Пиксели*Кадры) : 0.118
Размер потока : 442 Мбайт (86%)
Библиотека кодирования : x264 core 129 r2245+729M 1a52e03
Настройки программы : cabac=1 / ref=4 / deblock=1:1:-1 / analyse=0x3:0x113 / me=umh / subme=9 / psy=1 / fade_compensate=0.00 / psy_rd=1.00:0.00 / mixed_ref=1 / me_range=24 / chroma_me=1 / trellis=2 / 8x8dct=1 / cqm=0 / deadzone=21,11 / fast_pskip=1 / chroma_qp_offset=-2 / threads=8 / lookahead_threads=1 / sliced_threads=0 / nr=0 / decimate=1 / interlaced=0 / bluray_compat=0 / constrained_intra=0 / fgo=0 / bframes=9 / b_pyramid=2 / b_adapt=2 / b_bias=0 / direct=1 / weightb=1 / open_gop=0 / weightp=2 / keyint=240 / keyint_min=24 / scenecut=40 / intra_refresh=0 / rc=crf / mbtree=0 / crf=17.0 / qcomp=0.72 / qpmin=0 / qpmax=69 / qpstep=4 / ip_ratio=1.40 / pb_ratio=1.30 / aq=1:0.85
Дата кодирования : UTC 2014-08-09 22:06:22
Дата пометки : UTC 2014-08-08 22:43:36
Основные цвета : BT.709
Характеристики трансфера : BT.709
Коэффициенты матрицы : BT.709
Аудио #1
Идентификатор : 2
Формат : MPEG Audio
Версия формата : Version 1
Профиль формата : Layer 3
Режим : Joint stereo
Расширение режима : MS Stereo
Идентификатор кодека : 6B
Продолжительность : 23 м.
Вид битрейта : Постоянный
Битрейт : 224 Кбит/сек
Максимальный битрейт : 231 Кбит/сек
Каналы : 2 канала
Частота : 48,0 КГц
Метод сжатия : С потерями
Задержка видео : 83 мс.
Размер потока : 37,9 Мбайт (7%)
Библиотека кодирования : LAME3.99.5
Язык : Russian
Дата кодирования : UTC 2014-08-08 22:43:35
Дата пометки : UTC 2014-08-08 22:43:36
Аудио #2
Идентификатор : 3
Формат : MPEG Audio
Версия формата : Version 1
Профиль формата : Layer 3
Режим : Joint stereo
Расширение режима : MS Stereo
Идентификатор кодека : 6B
Продолжительность : 23 м.
Вид битрейта : Постоянный
Битрейт : 192 Кбит/сек
Максимальный битрейт : 198 Кбит/сек
Каналы : 2 канала
Частота : 48,0 КГц
Метод сжатия : С потерями
Задержка видео : 83 мс.
Размер потока : 32,5 Мбайт (6%)
Библиотека кодирования : LAME3.99.5
Язык : Japanese
Дата кодирования : UTC 2014-08-08 22:43:35
Дата пометки : UTC 2014-08-08 22:43:36
Общее
Полное имя : K:KinozalSword.Art.Online.II.2014.x264.HDTVRip.720pSword.Art.Online.II.(06.serija).2014.x264.HDTVRip.720p.ass
Размер файла : 34,6 Кбайт
Общее
Полное имя : K:KinozalSword.Art.Online.II.2014.x264.HDTVRip.720pSword.Art.Online.II.(06.serija).2014.x264.HDTVRip.720p.mp4
Формат : MPEG-4
Профиль формата : Base Media
Идентификатор кодека : isom
Размер файла : 506 Мбайт
Продолжительность : 23 м.
Общий поток : 2987 Кбит/сек
Дата кодирования : UTC 2014-08-15 18:34:08
Дата пометки : UTC 2014-08-15 18:34:08
Программа кодирования : Yamb 2.1.0.0 [http://yamb.unite-video.com]
Видео
Идентификатор : 1
Формат : AVC
Формат/Информация : Advanced Video Codec
Профиль формата : High@L4.1
Параметр CABAC формата : Да
Параметр ReFrames формата : 4 кадра
Идентификатор кодека : avc1
Идентификатор кодека/Информация : Advanced Video Coding
Продолжительность : 23 м.
Битрейт : 2567 Кбит/сек
Максимальный битрейт : 17,8 Мбит/сек
Ширина : 1280 пикселей
Высота : 720 пикселей
Соотношение сторон : 16:9
Режим частоты кадров : Переменный
Частота кадров : 23,976 кадра/сек
Минимальная частота кадров : 23,974 кадра/сек
Максимальная частота кадров : 23,981 кадра/сек
Цветовое пространство : YUV
Субдискретизация насыщенности : 4:2:0
Битовая глубина : 8 бит
Тип развёртки : Прогрессивная
Бит/(Пиксели*Кадры) : 0.116
Размер потока : 435 Мбайт (86%)
Библиотека кодирования : x264 core 129 r2245+729M 1a52e03
Настройки программы : cabac=1 / ref=4 / deblock=1:1:-1 / analyse=0x3:0x113 / me=umh / subme=9 / psy=1 / fade_compensate=0.00 / psy_rd=1.00:0.00 / mixed_ref=1 / me_range=24 / chroma_me=1 / trellis=2 / 8x8dct=1 / cqm=0 / deadzone=21,11 / fast_pskip=1 / chroma_qp_offset=-2 / threads=8 / lookahead_threads=1 / sliced_threads=0 / nr=0 / decimate=1 / interlaced=0 / bluray_compat=0 / constrained_intra=0 / fgo=0 / bframes=9 / b_pyramid=2 / b_adapt=2 / b_bias=0 / direct=1 / weightb=1 / open_gop=0 / weightp=2 / keyint=240 / keyint_min=24 / scenecut=40 / intra_refresh=0 / rc=crf / mbtree=0 / crf=17.0 / qcomp=0.72 / qpmin=0 / qpmax=69 / qpstep=4 / ip_ratio=1.40 / pb_ratio=1.30 / aq=1:0.85
Язык : English
Дата кодирования : UTC 2014-08-09 18:29:21
Дата пометки : UTC 2014-08-15 18:34:33
Основные цвета : BT.709
Характеристики трансфера : BT.709
Коэффициенты матрицы : BT.709
Аудио #1
Идентификатор : 2
Формат : MPEG Audio
Версия формата : Version 1
Профиль формата : Layer 3
Режим : Joint stereo
Расширение режима : MS Stereo
Идентификатор кодека : 6B
Продолжительность : 23 м.
Вид битрейта : Постоянный
Битрейт : 224 Кбит/сек
Максимальный битрейт : 231 Кбит/сек
Каналы : 2 канала
Частота : 48,0 КГц
Метод сжатия : С потерями
Размер потока : 37,9 Мбайт (8%)
Библиотека кодирования : LAME3.99.5
Язык : Russian
Дата кодирования : UTC 2014-08-15 18:34:32
Дата пометки : UTC 2014-08-15 18:34:33
Аудио #2
Идентификатор : 3
Формат : MPEG Audio
Версия формата : Version 1
Профиль формата : Layer 3
Режим : Joint stereo
Расширение режима : MS Stereo
Идентификатор кодека : 6B
Продолжительность : 23 м.
Вид битрейта : Постоянный
Битрейт : 192 Кбит/сек
Максимальный битрейт : 198 Кбит/сек
Каналы : 2 канала
Частота : 48,0 КГц
Метод сжатия : С потерями
Размер потока : 32,5 Мбайт (6%)
Библиотека кодирования : LAME3.99.5
Язык : Japanese
Дата кодирования : UTC 2014-08-15 18:34:32
Дата пометки : UTC 2014-08-15 18:34:33
Общее
Полное имя : K:KinozalSword.Art.Online.II.2014.x264.HDTVRip.720pSword.Art.Online.II.(07.serija).2014.x264.HDTVRip.720p.ass
Размер файла : 46,0 Кбайт
Общее
Полное имя : K:KinozalSword.Art.Online.II.2014.x264.HDTVRip.720pSword.Art.Online.II.(07.serija).2014.x264.HDTVRip.720p.mp4
Формат : MPEG-4
Профиль формата : Base Media
Идентификатор кодека : isom
Размер файла : 351 Мбайт
Продолжительность : 23 м.
Общий поток : 2071 Кбит/сек
Дата кодирования : UTC 2014-09-07 17:52:16
Дата пометки : UTC 2014-09-07 17:52:16
Программа кодирования : Yamb 2.1.0.0 [http://yamb.unite-video.com]
Видео
Идентификатор : 1
Формат : AVC
Формат/Информация : Advanced Video Codec
Профиль формата : High@L4.1
Параметр CABAC формата : Да
Параметр ReFrames формата : 4 кадра
Идентификатор кодека : avc1
Идентификатор кодека/Информация : Advanced Video Coding
Продолжительность : 23 м.
Битрейт : 1652 Кбит/сек
Максимальный битрейт : 15,5 Мбит/сек
Ширина : 1280 пикселей
Высота : 720 пикселей
Соотношение сторон : 16:9
Режим частоты кадров : Постоянный
Частота кадров : 23,976 кадра/сек
Цветовое пространство : YUV
Субдискретизация насыщенности : 4:2:0
Битовая глубина : 8 бит
Тип развёртки : Прогрессивная
Бит/(Пиксели*Кадры) : 0.075
Размер потока : 280 Мбайт (80%)
Библиотека кодирования : x264 core 119 r2106 07efeb4
Настройки программы : cabac=1 / ref=4 / deblock=1:1:1 / analyse=0x3:0x133 / me=umh / subme=7 / psy=1 / psy_rd=0.70:0.00 / mixed_ref=1 / me_range=16 / chroma_me=1 / trellis=2 / 8x8dct=1 / cqm=0 / deadzone=21,11 / fast_pskip=0 / chroma_qp_offset=-2 / threads=9 / sliced_threads=0 / nr=0 / decimate=1 / interlaced=0 / bluray_compat=0 / constrained_intra=0 / bframes=9 / b_pyramid=2 / b_adapt=1 / b_bias=0 / direct=1 / weightb=1 / open_gop=0 / weightp=2 / keyint=250 / keyint_min=23 / scenecut=40 / intra_refresh=0 / rc_lookahead=50 / rc=crf / mbtree=1 / crf=16.0 / qcomp=0.60 / qpmin=0 / qpmax=69 / qpstep=4 / ip_ratio=1.40 / aq=1:0.60
Дата кодирования : UTC 2014-09-07 19:11:05
Дата пометки : UTC 2014-09-07 17:52:23
Аудио #1
Идентификатор : 2
Формат : MPEG Audio
Версия формата : Version 1
Профиль формата : Layer 3
Режим : Joint stereo
Расширение режима : MS Stereo
Идентификатор кодека : 6B
Продолжительность : 23 м.
Duration_FirstFrame : -16 мс.
Вид битрейта : Постоянный
Битрейт : 224 Кбит/сек
Максимальный битрейт : 235 Кбит/сек
Каналы : 2 канала
Частота : 48,0 КГц
Метод сжатия : С потерями
Задержка видео : 125 мс.
Размер потока : 37,9 Мбайт (11%)
Библиотека кодирования : LAME3.99.5
Язык : Russian
Дата кодирования : UTC 2014-09-07 17:52:22
Дата пометки : UTC 2014-09-07 17:52:23
Аудио #2
Идентификатор : 3
Формат : MPEG Audio
Версия формата : Version 1
Профиль формата : Layer 3
Режим : Joint stereo
Расширение режима : MS Stereo
Идентификатор кодека : 6B
Продолжительность : 23 м.
Вид битрейта : Постоянный
Битрейт : 192 Кбит/сек
Максимальный битрейт : 198 Кбит/сек
Каналы : 2 канала
Частота : 48,0 КГц
Метод сжатия : С потерями
Задержка видео : 125 мс.
Размер потока : 32,5 Мбайт (9%)
Библиотека кодирования : LAME3.99.5
Язык : Japanese
Дата кодирования : UTC 2014-09-07 17:52:22
Дата пометки : UTC 2014-09-07 17:52:23
Общее
Полное имя : K:KinozalSword.Art.Online.II.2014.x264.HDTVRip.720pSword.Art.Online.II.(08.serija).2014.x264.HDTVRip.720p.ass
Размер файла : 44,1 Кбайт
Общее
Полное имя : K:KinozalSword.Art.Online.II.2014.x264.HDTVRip.720pSword.Art.Online.II.(08.serija).2014.x264.HDTVRip.720p.mp4
Формат : MPEG-4
Профиль формата : Base Media
Идентификатор кодека : isom
Размер файла : 379 Мбайт
Продолжительность : 23 м.
Общий поток : 2239 Кбит/сек
Дата кодирования : UTC 2014-09-07 17:54:32
Дата пометки : UTC 2014-09-07 17:54:32
Программа кодирования : Yamb 2.1.0.0 [http://yamb.unite-video.com]
Видео
Идентификатор : 1
Формат : AVC
Формат/Информация : Advanced Video Codec
Профиль формата : High@L4.1
Параметр CABAC формата : Да
Параметр ReFrames формата : 4 кадра
Идентификатор кодека : avc1
Идентификатор кодека/Информация : Advanced Video Coding
Продолжительность : 23 м.
Битрейт : 1820 Кбит/сек
Максимальный битрейт : 11,9 Мбит/сек
Ширина : 1280 пикселей
Высота : 720 пикселей
Соотношение сторон : 16:9
Режим частоты кадров : Постоянный
Частота кадров : 23,976 кадра/сек
Цветовое пространство : YUV
Субдискретизация насыщенности : 4:2:0
Битовая глубина : 8 бит
Тип развёртки : Прогрессивная
Бит/(Пиксели*Кадры) : 0.082
Размер потока : 308 Мбайт (81%)
Библиотека кодирования : x264 core 119 r2106 07efeb4
Настройки программы : cabac=1 / ref=4 / deblock=1:1:1 / analyse=0x3:0x133 / me=umh / subme=7 / psy=1 / psy_rd=0.70:0.00 / mixed_ref=1 / me_range=16 / chroma_me=1 / trellis=2 / 8x8dct=1 / cqm=0 / deadzone=21,11 / fast_pskip=0 / chroma_qp_offset=-2 / threads=9 / sliced_threads=0 / nr=0 / decimate=1 / interlaced=0 / bluray_compat=0 / constrained_intra=0 / bframes=9 / b_pyramid=2 / b_adapt=1 / b_bias=0 / direct=3 / weightb=1 / open_gop=0 / weightp=2 / keyint=250 / keyint_min=23 / scenecut=40 / intra_refresh=0 / rc_lookahead=50 / rc=crf / mbtree=1 / crf=16.0 / qcomp=0.60 / qpmin=0 / qpmax=69 / qpstep=4 / ip_ratio=1.40 / aq=1:0.60
Дата кодирования : UTC 2014-09-07 20:13:27
Дата пометки : UTC 2014-09-07 17:54:42
Аудио #1
Идентификатор : 2
Формат : MPEG Audio
Версия формата : Version 1
Профиль формата : Layer 3
Режим : Joint stereo
Идентификатор кодека : 6B
Продолжительность : 23 м.
Duration_FirstFrame : -16 мс.
Вид битрейта : Постоянный
Битрейт : 224 Кбит/сек
Максимальный битрейт : 235 Кбит/сек
Каналы : 2 канала
Частота : 48,0 КГц
Метод сжатия : С потерями
Задержка видео : 125 мс.
Размер потока : 37,9 Мбайт (10%)
Библиотека кодирования : LAME3.99.5
Язык : Russian
Дата кодирования : UTC 2014-09-07 17:54:39
Дата пометки : UTC 2014-09-07 17:54:42
Аудио #2
Идентификатор : 3
Формат : MPEG Audio
Версия формата : Version 1
Профиль формата : Layer 3
Режим : Joint stereo
Расширение режима : MS Stereo
Идентификатор кодека : 6B
Продолжительность : 23 м.
Вид битрейта : Постоянный
Битрейт : 192 Кбит/сек
Максимальный битрейт : 198 Кбит/сек
Каналы : 2 канала
Частота : 48,0 КГц
Метод сжатия : С потерями
Задержка видео : 125 мс.
Размер потока : 32,5 Мбайт (9%)
Библиотека кодирования : LAME3.99.5
Язык : Japanese
Дата кодирования : UTC 2014-09-07 17:54:41
Дата пометки : UTC 2014-09-07 17:54:42
Общее
Полное имя : K:KinozalSword.Art.Online.II.2014.x264.HDTVRip.720pSword.Art.Online.II.(09.serija).2014.x264.HDTVRip.720p.ass
Размер файла : 37,9 Кбайт
Общее
Полное имя : K:KinozalSword.Art.Online.II.2014.x264.HDTVRip.720pSword.Art.Online.II.(09.serija).2014.x264.HDTVRip.720p.mp4
Формат : MPEG-4
Профиль формата : Base Media
Идентификатор кодека : isom
Размер файла : 385 Мбайт
Продолжительность : 23 м.
Общий поток : 2277 Кбит/сек
Дата кодирования : UTC 2014-09-07 17:56:23
Дата пометки : UTC 2014-09-07 17:56:23
Программа кодирования : Yamb 2.1.0.0 [http://yamb.unite-video.com]
Видео
Идентификатор : 1
Формат : AVC
Формат/Информация : Advanced Video Codec
Профиль формата : High@L4.1
Параметр CABAC формата : Да
Параметр ReFrames формата : 4 кадра
Идентификатор кодека : avc1
Идентификатор кодека/Информация : Advanced Video Coding
Продолжительность : 23 м.
Битрейт : 1858 Кбит/сек
Максимальный битрейт : 14,3 Мбит/сек
Ширина : 1280 пикселей
Высота : 720 пикселей
Соотношение сторон : 16:9
Режим частоты кадров : Постоянный
Частота кадров : 23,976 кадра/сек
Цветовое пространство : YUV
Субдискретизация насыщенности : 4:2:0
Битовая глубина : 8 бит
Тип развёртки : Прогрессивная
Бит/(Пиксели*Кадры) : 0.084
Размер потока : 314 Мбайт (82%)
Библиотека кодирования : x264 core 119 r2106 07efeb4
Настройки программы : cabac=1 / ref=4 / deblock=1:1:1 / analyse=0x3:0x133 / me=umh / subme=7 / psy=1 / psy_rd=0.70:0.00 / mixed_ref=1 / me_range=16 / chroma_me=1 / trellis=2 / 8x8dct=1 / cqm=0 / deadzone=21,11 / fast_pskip=0 / chroma_qp_offset=-2 / threads=9 / sliced_threads=0 / nr=0 / decimate=1 / interlaced=0 / bluray_compat=0 / constrained_intra=0 / bframes=9 / b_pyramid=2 / b_adapt=1 / b_bias=0 / direct=3 / weightb=1 / open_gop=0 / weightp=2 / keyint=250 / keyint_min=23 / scenecut=40 / intra_refresh=0 / rc_lookahead=50 / rc=crf / mbtree=1 / crf=16.0 / qcomp=0.60 / qpmin=0 / qpmax=69 / qpstep=4 / ip_ratio=1.40 / aq=1:0.60
Дата кодирования : UTC 2014-09-07 20:40:49
Дата пометки : UTC 2014-09-07 17:56:32
Аудио #1
Идентификатор : 2
Формат : MPEG Audio
Версия формата : Version 1
Профиль формата : Layer 3
Режим : Joint stereo
Идентификатор кодека : 6B
Продолжительность : 23 м.
Duration_FirstFrame : -16 мс.
Вид битрейта : Постоянный
Битрейт : 224 Кбит/сек
Максимальный битрейт : 235 Кбит/сек
Каналы : 2 канала
Частота : 48,0 КГц
Метод сжатия : С потерями
Задержка видео : 83 мс.
Размер потока : 37,9 Мбайт (10%)
Библиотека кодирования : LAME3.99.5
Язык : Russian
Дата кодирования : UTC 2014-09-07 17:56:29
Дата пометки : UTC 2014-09-07 17:56:32
Аудио #2
Идентификатор : 3
Формат : MPEG Audio
Версия формата : Version 1
Профиль формата : Layer 3
Режим : Joint stereo
Расширение режима : MS Stereo
Идентификатор кодека : 6B
Продолжительность : 23 м.
Вид битрейта : Постоянный
Битрейт : 192 Кбит/сек
Максимальный битрейт : 198 Кбит/сек
Каналы : 2 канала
Частота : 48,0 КГц
Метод сжатия : С потерями
Задержка видео : 83 мс.
Размер потока : 32,5 Мбайт (8%)
Библиотека кодирования : LAME3.99.5
Язык : Japanese
Дата кодирования : UTC 2014-09-07 17:56:30
Дата пометки : UTC 2014-09-07 17:56:32
Общее
Полное имя : K:KinozalSword.Art.Online.II.2014.x264.HDTVRip.720pSword.Art.Online.II.(10.serija).2014.x264.HDTVRip.720p.ass
Размер файла : 39,8 Кбайт
Общее
Полное имя : K:KinozalSword.Art.Online.II.2014.x264.HDTVRip.720pSword.Art.Online.II.(10.serija).2014.x264.HDTVRip.720p.mp4
Формат : MPEG-4
Профиль формата : Base Media
Идентификатор кодека : isom
Размер файла : 368 Мбайт
Продолжительность : 23 м.
Общий поток : 2171 Кбит/сек
Дата кодирования : UTC 2014-09-23 21:32:57
Дата пометки : UTC 2014-09-23 21:32:57
Программа кодирования : Yamb 2.1.0.0 [http://yamb.unite-video.com]
Видео
Идентификатор : 1
Формат : AVC
Формат/Информация : Advanced Video Codec
Профиль формата : High@L4.1
Параметр CABAC формата : Да
Параметр ReFrames формата : 4 кадра
Идентификатор кодека : avc1
Идентификатор кодека/Информация : Advanced Video Coding
Продолжительность : 23 м.
Битрейт : 1753 Кбит/сек
Максимальный битрейт : 9033 Кбит/сек
Ширина : 1280 пикселей
Высота : 720 пикселей
Соотношение сторон : 16:9
Режим частоты кадров : Постоянный
Частота кадров : 23,976 кадра/сек
Цветовое пространство : YUV
Субдискретизация насыщенности : 4:2:0
Битовая глубина : 8 бит
Тип развёртки : Прогрессивная
Бит/(Пиксели*Кадры) : 0.079
Размер потока : 297 Мбайт (81%)
Библиотека кодирования : x264 core 119 r2106 07efeb4
Настройки программы : cabac=1 / ref=4 / deblock=1:1:1 / analyse=0x3:0x113 / me=umh / subme=11 / psy=1 / psy_rd=0.70:0.00 / mixed_ref=1 / me_range=24 / chroma_me=1 / trellis=2 / 8x8dct=1 / cqm=0 / deadzone=21,11 / fast_pskip=1 / chroma_qp_offset=-2 / threads=9 / sliced_threads=0 / nr=0 / decimate=1 / interlaced=0 / bluray_compat=0 / constrained_intra=0 / bframes=9 / b_pyramid=2 / b_adapt=2 / b_bias=0 / direct=3 / weightb=1 / open_gop=0 / weightp=2 / keyint=250 / keyint_min=23 / scenecut=40 / intra_refresh=0 / rc_lookahead=60 / rc=crf / mbtree=1 / crf=16.1 / qcomp=0.70 / qpmin=0 / qpmax=69 / qpstep=4 / ip_ratio=1.40 / aq=1:0.60
Дата кодирования : UTC 2014-09-24 00:31:57
Дата пометки : UTC 2014-09-23 21:33:00
Аудио #1
Идентификатор : 2
Формат : MPEG Audio
Версия формата : Version 1
Профиль формата : Layer 3
Режим : Joint stereo
Идентификатор кодека : 6B
Продолжительность : 23 м.
Вид битрейта : Постоянный
Битрейт : 224 Кбит/сек
Максимальный битрейт : 231 Кбит/сек
Каналы : 2 канала
Частота : 48,0 КГц
Метод сжатия : С потерями
Задержка видео : 83 мс.
Размер потока : 37,9 Мбайт (10%)
Библиотека кодирования : LAME3.99.5
Язык : Russian
Дата кодирования : UTC 2014-09-23 21:32:59
Дата пометки : UTC 2014-09-23 21:33:00
Аудио #2
Идентификатор : 3
Формат : MPEG Audio
Версия формата : Version 1
Профиль формата : Layer 3
Режим : Joint stereo
Идентификатор кодека : 6B
Продолжительность : 23 м.
Вид битрейта : Постоянный
Битрейт : 192 Кбит/сек
Максимальный битрейт : 198 Кбит/сек
Каналы : 2 канала
Частота : 48,0 КГц
Метод сжатия : С потерями
Задержка видео : 83 мс.
Размер потока : 32,5 Мбайт (9%)
Библиотека кодирования : LAME3.99.5
Язык : Japanese
Дата кодирования : UTC 2014-09-23 21:32:59
Дата пометки : UTC 2014-09-23 21:33:00
Общее
Полное имя : K:KinozalSword.Art.Online.II.2014.x264.HDTVRip.720pSword.Art.Online.II.(11.serija).2014.x264.HDTVRip.720p.ass
Размер файла : 49,3 Кбайт
Общее
Полное имя : K:KinozalSword.Art.Online.II.2014.x264.HDTVRip.720pSword.Art.Online.II.(11.serija).2014.x264.HDTVRip.720p.mp4
Формат : MPEG-4
Профиль формата : Base Media
Идентификатор кодека : isom
Размер файла : 309 Мбайт
Продолжительность : 23 м.
Общий поток : 1822 Кбит/сек
Дата кодирования : UTC 2014-09-23 21:41:13
Дата пометки : UTC 2014-09-23 21:41:13
Программа кодирования : Yamb 2.1.0.0 [http://yamb.unite-video.com]
Видео
Идентификатор : 1
Формат : AVC
Формат/Информация : Advanced Video Codec
Профиль формата : High@L4.1
Параметр CABAC формата : Да
Параметр ReFrames формата : 4 кадра
Идентификатор кодека : avc1
Идентификатор кодека/Информация : Advanced Video Coding
Продолжительность : 23 м.
Битрейт : 1404 Кбит/сек
Максимальный битрейт : 8974 Кбит/сек
Ширина : 1280 пикселей
Высота : 720 пикселей
Соотношение сторон : 16:9
Режим частоты кадров : Постоянный
Частота кадров : 23,976 кадра/сек
Цветовое пространство : YUV
Субдискретизация насыщенности : 4:2:0
Битовая глубина : 8 бит
Тип развёртки : Прогрессивная
Бит/(Пиксели*Кадры) : 0.064
Размер потока : 238 Мбайт (77%)
Библиотека кодирования : x264 core 119 r2106 07efeb4
Настройки программы : cabac=1 / ref=4 / deblock=1:1:1 / analyse=0x3:0x113 / me=umh / subme=11 / psy=1 / psy_rd=0.70:0.00 / mixed_ref=1 / me_range=24 / chroma_me=1 / trellis=2 / 8x8dct=1 / cqm=0 / deadzone=21,11 / fast_pskip=1 / chroma_qp_offset=-2 / threads=9 / sliced_threads=0 / nr=0 / decimate=1 / interlaced=0 / bluray_compat=0 / constrained_intra=0 / bframes=9 / b_pyramid=2 / b_adapt=2 / b_bias=0 / direct=3 / weightb=1 / open_gop=0 / weightp=2 / keyint=250 / keyint_min=23 / scenecut=40 / intra_refresh=0 / rc_lookahead=60 / rc=crf / mbtree=1 / crf=15.9 / qcomp=0.70 / qpmin=0 / qpmax=69 / qpstep=4 / ip_ratio=1.40 / aq=1:0.60
Дата кодирования : UTC 2014-09-24 11:47:55
Дата пометки : UTC 2014-09-23 21:41:18
Аудио #1
Идентификатор : 2
Формат : MPEG Audio
Версия формата : Version 1
Профиль формата : Layer 3
Режим : Joint stereo
Расширение режима : MS Stereo
Идентификатор кодека : 6B
Продолжительность : 23 м.
Вид битрейта : Постоянный
Битрейт : 224 Кбит/сек
Максимальный битрейт : 231 Кбит/сек
Каналы : 2 канала
Частота : 48,0 КГц
Метод сжатия : С потерями
Задержка видео : 83 мс.
Размер потока : 37,9 Мбайт (12%)
Библиотека кодирования : LAME3.99.5
Язык : Russian
Дата кодирования : UTC 2014-09-23 21:41:17
Дата пометки : UTC 2014-09-23 21:41:18
Аудио #2
Идентификатор : 3
Формат : MPEG Audio
Версия формата : Version 1
Профиль формата : Layer 3
Режим : Joint stereo
Идентификатор кодека : 6B
Продолжительность : 23 м.
Вид битрейта : Постоянный
Битрейт : 192 Кбит/сек
Максимальный битрейт : 198 Кбит/сек
Каналы : 2 канала
Частота : 48,0 КГц
Метод сжатия : С потерями
Задержка видео : 83 мс.
Размер потока : 32,5 Мбайт (11%)
Библиотека кодирования : LAME3.99.5
Язык : Japanese
Дата кодирования : UTC 2014-09-23 21:41:18
Дата пометки : UTC 2014-09-23 21:41:18
Общее
Полное имя : K:KinozalSword.Art.Online.II.2014.x264.HDTVRip.720pSword.Art.Online.II.(12.serija).2014.x264.HDTVRip.720p.ass
Размер файла : 44,0 Кбайт
Общее
Полное имя : K:KinozalSword.Art.Online.II.2014.x264.HDTVRip.720pSword.Art.Online.II.(12.serija).2014.x264.HDTVRip.720p.mp4
Формат : MPEG-4
Профиль формата : Base Media
Идентификатор кодека : isom
Размер файла : 504 Мбайт
Продолжительность : 23 м.
Общий поток : 2973 Кбит/сек
Дата кодирования : UTC 2014-11-08 09:44:01
Дата пометки : UTC 2014-11-08 09:44:01
Программа кодирования : Yamb 2.1.0.0 [http://yamb.unite-video.com]
Видео
Идентификатор : 1
Формат : AVC
Формат/Информация : Advanced Video Codec
Профиль формата : High@L4.1
Параметр CABAC формата : Да
Параметр ReFrames формата : 4 кадра
Идентификатор кодека : avc1
Идентификатор кодека/Информация : Advanced Video Coding
Продолжительность : 23 м.
Битрейт : 2557 Кбит/сек
Максимальный битрейт : 13,3 Мбит/сек
Ширина : 1280 пикселей
Высота : 720 пикселей
Соотношение сторон : 16:9
Режим частоты кадров : Переменный
Частота кадров : 23,976 кадра/сек
Минимальная частота кадров : 23,974 кадра/сек
Максимальная частота кадров : 23,981 кадра/сек
Цветовое пространство : YUV
Субдискретизация насыщенности : 4:2:0
Битовая глубина : 8 бит
Тип развёртки : Прогрессивная
Бит/(Пиксели*Кадры) : 0.116
Размер потока : 433 Мбайт (86%)
Библиотека кодирования : x264 core 129 r2245+729M 1a52e03
Настройки программы : cabac=1 / ref=4 / deblock=1:1:-1 / analyse=0x3:0x113 / me=umh / subme=9 / psy=1 / fade_compensate=0.00 / psy_rd=1.00:0.00 / mixed_ref=1 / me_range=24 / chroma_me=1 / trellis=2 / 8x8dct=1 / cqm=0 / deadzone=21,11 / fast_pskip=1 / chroma_qp_offset=-2 / threads=8 / lookahead_threads=1 / sliced_threads=0 / nr=0 / decimate=1 / interlaced=0 / bluray_compat=0 / constrained_intra=0 / fgo=0 / bframes=9 / b_pyramid=2 / b_adapt=2 / b_bias=0 / direct=1 / weightb=1 / open_gop=0 / weightp=2 / keyint=240 / keyint_min=24 / scenecut=40 / intra_refresh=0 / rc=crf / mbtree=0 / crf=17.0 / qcomp=0.72 / qpmin=0 / qpmax=69 / qpstep=4 / ip_ratio=1.40 / pb_ratio=1.30 / aq=1:0.85
Язык : English
Дата кодирования : UTC 2014-09-20 18:08:36
Дата пометки : UTC 2014-11-08 09:44:22
Основные цвета : BT.709
Характеристики трансфера : BT.709
Коэффициенты матрицы : BT.709
Аудио #1
Идентификатор : 2
Формат : MPEG Audio
Версия формата : Version 1
Профиль формата : Layer 3
Режим : Joint stereo
Расширение режима : MS Stereo
Идентификатор кодека : 6B
Продолжительность : 23 м.
Вид битрейта : Постоянный
Битрейт : 224 Кбит/сек
Максимальный битрейт : 231 Кбит/сек
Каналы : 2 канала
Частота : 48,0 КГц
Метод сжатия : С потерями
Размер потока : 38,0 Мбайт (8%)
Библиотека кодирования : LAME3.99.5
Язык : Russian
Дата кодирования : UTC 2014-11-08 09:44:18
Дата пометки : UTC 2014-11-08 09:44:22
Аудио #2
Идентификатор : 3
Формат : MPEG Audio
Версия формата : Version 1
Профиль формата : Layer 3
Режим : Joint stereo
Расширение режима : MS Stereo
Идентификатор кодека : 6B
Продолжительность : 23 м.
Вид битрейта : Постоянный
Битрейт : 192 Кбит/сек
Максимальный битрейт : 198 Кбит/сек
Каналы : 2 канала
Частота : 48,0 КГц
Метод сжатия : С потерями
Размер потока : 32,5 Мбайт (6%)
Библиотека кодирования : LAME3.99.5
Язык : Japanese
Дата кодирования : UTC 2014-11-08 09:44:19
Дата пометки : UTC 2014-11-08 09:44:22
Общее
Полное имя : K:KinozalSword.Art.Online.II.2014.x264.HDTVRip.720pSword.Art.Online.II.(13.serija).2014.x264.HDTVRip.720p.ass
Размер файла : 38,0 Кбайт
Общее
Полное имя : K:KinozalSword.Art.Online.II.2014.x264.HDTVRip.720pSword.Art.Online.II.(13.serija).2014.x264.HDTVRip.720p.mp4
Формат : MPEG-4
Профиль формата : Base Media
Идентификатор кодека : isom
Размер файла : 299 Мбайт
Продолжительность : 23 м.
Общий поток : 1764 Кбит/сек
Дата кодирования : UTC 2014-10-05 13:51:46
Дата пометки : UTC 2014-10-05 13:51:46
Программа кодирования : Yamb 2.1.0.0 [http://yamb.unite-video.com]
Видео
Идентификатор : 1
Формат : AVC
Формат/Информация : Advanced Video Codec
Профиль формата : High@L5.0
Параметр CABAC формата : Да
Параметр ReFrames формата : 16 кадров
Идентификатор кодека : avc1
Идентификатор кодека/Информация : Advanced Video Coding
Продолжительность : 23 м.
Битрейт : 1343 Кбит/сек
Максимальный битрейт : 9598 Кбит/сек
Ширина : 1280 пикселей
Высота : 720 пикселей
Соотношение сторон : 16:9
Режим частоты кадров : Постоянный
Частота кадров : 23,976 кадра/сек
Цветовое пространство : YUV
Субдискретизация насыщенности : 4:2:0
Битовая глубина : 8 бит
Тип развёртки : Прогрессивная
Бит/(Пиксели*Кадры) : 0.061
Размер потока : 228 Мбайт (76%)
Библиотека кодирования : x264 core 119 r2106 07efeb4
Настройки программы : cabac=1 / ref=16 / deblock=1:1:0 / analyse=0x3:0x113 / me=umh / subme=10 / psy=1 / psy_rd=0.60:0.15 / mixed_ref=1 / me_range=24 / chroma_me=1 / trellis=2 / 8x8dct=1 / cqm=0 / deadzone=21,11 / fast_pskip=1 / chroma_qp_offset=-3 / threads=9 / sliced_threads=0 / nr=0 / decimate=1 / interlaced=0 / bluray_compat=0 / constrained_intra=0 / bframes=16 / b_pyramid=2 / b_adapt=2 / b_bias=0 / direct=3 / weightb=1 / open_gop=0 / weightp=2 / keyint=250 / keyint_min=23 / scenecut=40 / intra_refresh=0 / rc_lookahead=60 / rc=2pass / mbtree=1 / bitrate=1343 / ratetol=1.0 / qcomp=0.60 / qpmin=0 / qpmax=69 / qpstep=4 / cplxblur=20.0 / qblur=0.5 / ip_ratio=1.40 / aq=1:0.60
Дата кодирования : UTC 2014-10-03 07:30:16
Дата пометки : UTC 2014-10-05 13:51:53
Аудио #1
Идентификатор : 2
Формат : MPEG Audio
Версия формата : Version 1
Профиль формата : Layer 3
Режим : Joint stereo
Расширение режима : MS Stereo
Идентификатор кодека : 6B
Продолжительность : 23 м.
Вид битрейта : Постоянный
Битрейт : 224 Кбит/сек
Максимальный битрейт : 231 Кбит/сек
Каналы : 2 канала
Частота : 48,0 КГц
Метод сжатия : С потерями
Задержка видео : 83 мс.
Размер потока : 38,0 Мбайт (13%)
Библиотека кодирования : LAME3.99.5
Язык : Russian
Дата кодирования : UTC 2014-10-05 13:51:52
Дата пометки : UTC 2014-10-05 13:51:53
Аудио #2
Идентификатор : 3
Формат : MPEG Audio
Версия формата : Version 1
Профиль формата : Layer 3
Режим : Joint stereo
Расширение режима : MS Stereo
Идентификатор кодека : 6B
Продолжительность : 23 м.
Вид битрейта : Постоянный
Битрейт : 192 Кбит/сек
Максимальный битрейт : 198 Кбит/сек
Каналы : 2 канала
Частота : 48,0 КГц
Метод сжатия : С потерями
Задержка видео : 83 мс.
Размер потока : 32,5 Мбайт (11%)
Библиотека кодирования : LAME3.99.5
Язык : Japanese
Дата кодирования : UTC 2014-10-05 13:51:52
Дата пометки : UTC 2014-10-05 13:51:53
Общее
Полное имя : K:KinozalSword.Art.Online.II.2014.x264.HDTVRip.720pSword.Art.Online.II.(14.serija).2014.x264.HDTVRip.720p.ass
Размер файла : 43,4 Кбайт
Общее
Полное имя : K:KinozalSword.Art.Online.II.2014.x264.HDTVRip.720pSword.Art.Online.II.(14.serija).2014.x264.HDTVRip.720p.mp4
Формат : MPEG-4
Профиль формата : Base Media
Идентификатор кодека : isom
Размер файла : 387 Мбайт
Продолжительность : 23 м.
Общий поток : 2283 Кбит/сек
Дата кодирования : UTC 2014-10-18 00:45:43
Дата пометки : UTC 2014-10-18 00:45:43
Программа кодирования : Yamb 2.1.0.0 [http://yamb.unite-video.com]
Видео
Идентификатор : 1
Формат : AVC
Формат/Информация : Advanced Video Codec
Профиль формата : High@L4.1
Параметр CABAC формата : Да
Параметр ReFrames формата : 4 кадра
Идентификатор кодека : avc1
Идентификатор кодека/Информация : Advanced Video Coding
Продолжительность : 23 м.
Битрейт : 1866 Кбит/сек
Максимальный битрейт : 10,3 Мбит/сек
Ширина : 1280 пикселей
Высота : 720 пикселей
Соотношение сторон : 16:9
Режим частоты кадров : Переменный
Частота кадров : 23,976 кадра/сек
Минимальная частота кадров : 23,974 кадра/сек
Максимальная частота кадров : 23,981 кадра/сек
Цветовое пространство : YUV
Субдискретизация насыщенности : 4:2:0
Битовая глубина : 8 бит
Тип развёртки : Прогрессивная
Бит/(Пиксели*Кадры) : 0.084
Размер потока : 316 Мбайт (82%)
Библиотека кодирования : x264 core 129 r2245+729M 1a52e03
Настройки программы : cabac=1 / ref=4 / deblock=1:1:-1 / analyse=0x3:0x113 / me=umh / subme=9 / psy=1 / fade_compensate=0.00 / psy_rd=1.00:0.00 / mixed_ref=1 / me_range=24 / chroma_me=1 / trellis=2 / 8x8dct=1 / cqm=0 / deadzone=21,11 / fast_pskip=1 / chroma_qp_offset=-2 / threads=8 / lookahead_threads=1 / sliced_threads=0 / nr=0 / decimate=1 / interlaced=0 / bluray_compat=0 / constrained_intra=0 / fgo=0 / bframes=9 / b_pyramid=2 / b_adapt=2 / b_bias=0 / direct=1 / weightb=1 / open_gop=0 / weightp=2 / keyint=240 / keyint_min=24 / scenecut=40 / intra_refresh=0 / rc=crf / mbtree=0 / crf=17.0 / qcomp=0.72 / qpmin=0 / qpmax=69 / qpstep=4 / ip_ratio=1.40 / pb_ratio=1.30 / aq=1:0.85
Язык : English
Дата кодирования : UTC 2014-10-04 19:03:36
Дата пометки : UTC 2014-10-18 00:45:51
Основные цвета : BT.709
Характеристики трансфера : BT.709
Коэффициенты матрицы : BT.709
Аудио #1
Идентификатор : 2
Формат : MPEG Audio
Версия формата : Version 1
Профиль формата : Layer 3
Режим : Joint stereo
Расширение режима : MS Stereo
Идентификатор кодека : 6B
Продолжительность : 23 м.
Вид битрейта : Постоянный
Битрейт : 224 Кбит/сек
Максимальный битрейт : 231 Кбит/сек
Каналы : 2 канала
Частота : 48,0 КГц
Метод сжатия : С потерями
Размер потока : 37,9 Мбайт (10%)
Библиотека кодирования : LAME3.99.5
Язык : Russian
Дата кодирования : UTC 2014-10-18 00:45:50
Дата пометки : UTC 2014-10-18 00:45:51
Аудио #2
Идентификатор : 3
Формат : MPEG Audio
Версия формата : Version 1
Профиль формата : Layer 3
Режим : Joint stereo
Расширение режима : MS Stereo
Идентификатор кодека : 6B
Продолжительность : 23 м.
Вид битрейта : Постоянный
Битрейт : 192 Кбит/сек
Максимальный битрейт : 198 Кбит/сек
Каналы : 2 канала
Частота : 48,0 КГц
Метод сжатия : С потерями
Размер потока : 32,5 Мбайт (8%)
Библиотека кодирования : LAME3.99.5
Язык : Japanese
Дата кодирования : UTC 2014-10-18 00:45:50
Дата пометки : UTC 2014-10-18 00:45:51
Общее
Полное имя : K:KinozalSword.Art.Online.II.2014.x264.HDTVRip.720pSword.Art.Online.II.(15.serija).2014.x264.HDTVRip.720p.ass
Размер файла : 45,2 Кбайт
Общее
Полное имя : K:KinozalSword.Art.Online.II.2014.x264.HDTVRip.720pSword.Art.Online.II.(15.serija).2014.x264.HDTVRip.720p.mp4
Формат : MPEG-4
Профиль формата : Base Media
Идентификатор кодека : isom
Размер файла : 456 Мбайт
Продолжительность : 23 м.
Общий поток : 2693 Кбит/сек
Дата кодирования : UTC 2014-10-25 13:50:17
Дата пометки : UTC 2014-10-25 13:50:17
Программа кодирования : Yamb 2.1.0.0 [http://yamb.unite-video.com]
Видео
Идентификатор : 1
Формат : AVC
Формат/Информация : Advanced Video Codec
Профиль формата : High@L4.1
Параметр CABAC формата : Да
Параметр ReFrames формата : 4 кадра
Идентификатор кодека : avc1
Идентификатор кодека/Информация : Advanced Video Coding
Продолжительность : 23 м.
Битрейт : 2273 Кбит/сек
Максимальный битрейт : 23,2 Мбит/сек
Ширина : 1280 пикселей
Высота : 720 пикселей
Соотношение сторон : 16:9
Режим частоты кадров : Переменный
Частота кадров : 23,976 кадра/сек
Минимальная частота кадров : 23,974 кадра/сек
Максимальная частота кадров : 23,981 кадра/сек
Цветовое пространство : YUV
Субдискретизация насыщенности : 4:2:0
Битовая глубина : 8 бит
Тип развёртки : Прогрессивная
Бит/(Пиксели*Кадры) : 0.103
Размер потока : 385 Мбайт (84%)
Библиотека кодирования : x264 core 129 r2245+729M 1a52e03
Настройки программы : cabac=1 / ref=4 / deblock=1:1:-1 / analyse=0x3:0x113 / me=umh / subme=9 / psy=1 / fade_compensate=0.00 / psy_rd=1.00:0.00 / mixed_ref=1 / me_range=24 / chroma_me=1 / trellis=2 / 8x8dct=1 / cqm=0 / deadzone=21,11 / fast_pskip=1 / chroma_qp_offset=-2 / threads=8 / lookahead_threads=1 / sliced_threads=0 / nr=0 / decimate=1 / interlaced=0 / bluray_compat=0 / constrained_intra=0 / fgo=0 / bframes=9 / b_pyramid=2 / b_adapt=2 / b_bias=0 / direct=1 / weightb=1 / open_gop=0 / weightp=2 / keyint=240 / keyint_min=24 / scenecut=40 / intra_refresh=0 / rc=crf / mbtree=0 / crf=17.0 / qcomp=0.72 / qpmin=0 / qpmax=69 / qpstep=4 / ip_ratio=1.40 / pb_ratio=1.30 / aq=1:0.85
Язык : English
Дата кодирования : UTC 2014-10-19 01:17:18
Дата пометки : UTC 2014-10-25 13:50:33
Основные цвета : BT.709
Характеристики трансфера : BT.709
Коэффициенты матрицы : BT.709
Аудио #1
Идентификатор : 2
Формат : MPEG Audio
Версия формата : Version 1
Профиль формата : Layer 3
Режим : Joint stereo
Расширение режима : MS Stereo
Идентификатор кодека : 6B
Продолжительность : 23 м.
Вид битрейта : Постоянный
Битрейт : 224 Кбит/сек
Максимальный битрейт : 231 Кбит/сек
Каналы : 2 канала
Частота : 48,0 КГц
Метод сжатия : С потерями
Размер потока : 37,9 Мбайт (8%)
Библиотека кодирования : LAME3.99.5
Язык : Russian
Дата кодирования : UTC 2014-10-25 13:50:32
Дата пометки : UTC 2014-10-25 13:50:33
Аудио #2
Идентификатор : 3
Формат : MPEG Audio
Версия формата : Version 1
Профиль формата : Layer 3
Режим : Joint stereo
Идентификатор кодека : 6B
Продолжительность : 23 м.
Вид битрейта : Постоянный
Битрейт : 192 Кбит/сек
Максимальный битрейт : 198 Кбит/сек
Каналы : 2 канала
Частота : 48,0 КГц
Метод сжатия : С потерями
Размер потока : 32,5 Мбайт (7%)
Библиотека кодирования : LAME3.99.5
Язык : Japanese
Дата кодирования : UTC 2014-10-25 13:50:32
Дата пометки : UTC 2014-10-25 13:50:33
Общее
Полное имя : K:KinozalSword.Art.Online.II.2014.x264.HDTVRip.720pSword.Art.Online.II.(16.serija).2014.x264.HDTVRip.720p.ass
Размер файла : 40,8 Кбайт
Общее
Полное имя : K:KinozalSword.Art.Online.II.2014.x264.HDTVRip.720pSword.Art.Online.II.(16.serija).2014.x264.HDTVRip.720p.mp4
Формат : MPEG-4
Профиль формата : Base Media
Идентификатор кодека : isom
Размер файла : 555 Мбайт
Продолжительность : 23 м.
Общий поток : 3279 Кбит/сек
Дата кодирования : UTC 2014-11-07 20:00:27
Дата пометки : UTC 2014-11-07 20:00:27
Программа кодирования : Yamb 2.1.0.0 [http://yamb.unite-video.com]
Видео
Идентификатор : 1
Формат : AVC
Формат/Информация : Advanced Video Codec
Профиль формата : High@L4.1
Параметр CABAC формата : Да
Параметр ReFrames формата : 4 кадра
Идентификатор кодека : avc1
Идентификатор кодека/Информация : Advanced Video Coding
Продолжительность : 23 м.
Битрейт : 2861 Кбит/сек
Максимальный битрейт : 22,8 Мбит/сек
Ширина : 1280 пикселей
Высота : 720 пикселей
Соотношение сторон : 16:9
Режим частоты кадров : Переменный
Частота кадров : 23,976 кадра/сек
Минимальная частота кадров : 23,974 кадра/сек
Максимальная частота кадров : 23,981 кадра/сек
Цветовое пространство : YUV
Субдискретизация насыщенности : 4:2:0
Битовая глубина : 8 бит
Тип развёртки : Прогрессивная
Бит/(Пиксели*Кадры) : 0.129
Размер потока : 484 Мбайт (87%)
Библиотека кодирования : x264 core 129 r2245+729M 1a52e03
Настройки программы : cabac=1 / ref=4 / deblock=1:1:-1 / analyse=0x3:0x113 / me=umh / subme=9 / psy=1 / fade_compensate=0.00 / psy_rd=1.00:0.00 / mixed_ref=1 / me_range=24 / chroma_me=1 / trellis=2 / 8x8dct=1 / cqm=0 / deadzone=21,11 / fast_pskip=1 / chroma_qp_offset=-2 / threads=8 / lookahead_threads=1 / sliced_threads=0 / nr=0 / decimate=1 / interlaced=0 / bluray_compat=0 / constrained_intra=0 / fgo=0 / bframes=9 / b_pyramid=2 / b_adapt=2 / b_bias=0 / direct=1 / weightb=1 / open_gop=0 / weightp=2 / keyint=240 / keyint_min=24 / scenecut=40 / intra_refresh=0 / rc=crf / mbtree=0 / crf=17.0 / qcomp=0.72 / qpmin=0 / qpmax=69 / qpstep=4 / ip_ratio=1.40 / pb_ratio=1.30 / aq=1:0.85
Язык : English
Дата кодирования : UTC 2014-10-26 09:11:50
Дата пометки : UTC 2014-11-07 20:00:50
Основные цвета : BT.709
Характеристики трансфера : BT.709
Коэффициенты матрицы : BT.709
Аудио #1
Идентификатор : 2
Формат : MPEG Audio
Версия формата : Version 1
Профиль формата : Layer 3
Режим : Joint stereo
Расширение режима : MS Stereo
Идентификатор кодека : 6B
Продолжительность : 23 м.
Вид битрейта : Постоянный
Битрейт : 224 Кбит/сек
Максимальный битрейт : 231 Кбит/сек
Каналы : 2 канала
Частота : 48,0 КГц
Метод сжатия : С потерями
Размер потока : 37,9 Мбайт (7%)
Библиотека кодирования : LAME3.99.5
Язык : Russian
Дата кодирования : UTC 2014-11-07 20:00:49
Дата пометки : UTC 2014-11-07 20:00:50
Аудио #2
Идентификатор : 3
Формат : MPEG Audio
Версия формата : Version 1
Профиль формата : Layer 3
Режим : Joint stereo
Расширение режима : MS Stereo
Идентификатор кодека : 6B
Продолжительность : 23 м.
Вид битрейта : Постоянный
Битрейт : 192 Кбит/сек
Максимальный битрейт : 198 Кбит/сек
Каналы : 2 канала
Частота : 48,0 КГц
Метод сжатия : С потерями
Размер потока : 32,5 Мбайт (6%)
Библиотека кодирования : LAME3.99.5
Язык : Japanese
Дата кодирования : UTC 2014-11-07 20:00:50
Дата пометки : UTC 2014-11-07 20:00:50
Общее
Полное имя : K:KinozalSword.Art.Online.II.2014.x264.HDTVRip.720pSword.Art.Online.II.(17.serija).2014.x264.HDTVRip.720p.ass
Размер файла : 35,6 Кбайт
Общее
Полное имя : K:KinozalSword.Art.Online.II.2014.x264.HDTVRip.720pSword.Art.Online.II.(17.serija).2014.x264.HDTVRip.720p.mp4
Формат : MPEG-4
Профиль формата : Base Media
Идентификатор кодека : isom
Размер файла : 569 Мбайт
Продолжительность : 23 м.
Общий поток : 3357 Кбит/сек
Дата кодирования : UTC 2014-11-08 08:54:54
Дата пометки : UTC 2014-11-08 08:54:54
Программа кодирования : Yamb 2.1.0.0 [http://yamb.unite-video.com]
Видео
Идентификатор : 1
Формат : AVC
Формат/Информация : Advanced Video Codec
Профиль формата : High@L4.1
Параметр CABAC формата : Да
Параметр ReFrames формата : 4 кадра
Идентификатор кодека : avc1
Идентификатор кодека/Информация : Advanced Video Coding
Продолжительность : 23 м.
Битрейт : 2941 Кбит/сек
Максимальный битрейт : 21,9 Мбит/сек
Ширина : 1280 пикселей
Высота : 720 пикселей
Соотношение сторон : 16:9
Режим частоты кадров : Переменный
Частота кадров : 23,976 кадра/сек
Минимальная частота кадров : 23,974 кадра/сек
Максимальная частота кадров : 23,981 кадра/сек
Цветовое пространство : YUV
Субдискретизация насыщенности : 4:2:0
Битовая глубина : 8 бит
Тип развёртки : Прогрессивная
Бит/(Пиксели*Кадры) : 0.133
Размер потока : 498 Мбайт (88%)
Библиотека кодирования : x264 core 129 r2245+729M 1a52e03
Настройки программы : cabac=1 / ref=4 / deblock=1:1:-1 / analyse=0x3:0x113 / me=umh / subme=9 / psy=1 / fade_compensate=0.00 / psy_rd=1.00:0.00 / mixed_ref=1 / me_range=24 / chroma_me=1 / trellis=2 / 8x8dct=1 / cqm=0 / deadzone=21,11 / fast_pskip=1 / chroma_qp_offset=-2 / threads=8 / lookahead_threads=1 / sliced_threads=0 / nr=0 / decimate=1 / interlaced=0 / bluray_compat=0 / constrained_intra=0 / fgo=0 / bframes=9 / b_pyramid=2 / b_adapt=2 / b_bias=0 / direct=1 / weightb=1 / open_gop=0 / weightp=2 / keyint=240 / keyint_min=24 / scenecut=40 / intra_refresh=0 / rc=crf / mbtree=0 / crf=17.0 / qcomp=0.72 / qpmin=0 / qpmax=69 / qpstep=4 / ip_ratio=1.40 / pb_ratio=1.30 / aq=1:0.85
Язык : English
Дата кодирования : UTC 2014-11-01 18:44:24
Дата пометки : UTC 2014-11-08 08:55:20
Основные цвета : BT.709
Характеристики трансфера : BT.709
Коэффициенты матрицы : BT.709
Аудио #1
Идентификатор : 2
Формат : MPEG Audio
Версия формата : Version 1
Профиль формата : Layer 3
Режим : Joint stereo
Идентификатор кодека : 6B
Продолжительность : 23 м.
Вид битрейта : Постоянный
Битрейт : 224 Кбит/сек
Максимальный битрейт : 231 Кбит/сек
Каналы : 2 канала
Частота : 48,0 КГц
Метод сжатия : С потерями
Размер потока : 37,9 Мбайт (7%)
Библиотека кодирования : LAME3.99.5
Язык : Russian
Дата кодирования : UTC 2014-11-08 08:55:19
Дата пометки : UTC 2014-11-08 08:55:20
Аудио #2
Идентификатор : 3
Формат : MPEG Audio
Версия формата : Version 1
Профиль формата : Layer 3
Режим : Joint stereo
Идентификатор кодека : 6B
Продолжительность : 23 м.
Вид битрейта : Постоянный
Битрейт : 192 Кбит/сек
Максимальный битрейт : 198 Кбит/сек
Каналы : 2 канала
Частота : 48,0 КГц
Метод сжатия : С потерями
Размер потока : 32,5 Мбайт (6%)
Библиотека кодирования : LAME3.99.5
Язык : Japanese
Дата кодирования : UTC 2014-11-08 08:55:20
Дата пометки : UTC 2014-11-08 08:55:20
Общее
Полное имя : K:KinozalSword.Art.Online.II.2014.x264.HDTVRip.720pSword.Art.Online.II.(18.serija).2014.x264.HDTVRip.720p.ass
Размер файла : 51,8 Кбайт
Общее
Полное имя : K:KinozalSword.Art.Online.II.2014.x264.HDTVRip.720pSword.Art.Online.II.(18.serija).2014.x264.HDTVRip.720p.mp4
Формат : MPEG-4
Профиль формата : Base Media
Идентификатор кодека : isom
Размер файла : 476 Мбайт
Продолжительность : 23 м.
Общий поток : 2809 Кбит/сек
Дата кодирования : UTC 2014-11-18 13:40:52
Дата пометки : UTC 2014-11-18 13:40:52
Программа кодирования : Yamb 2.1.0.0 [http://yamb.unite-video.com]
Видео
Идентификатор : 1
Формат : AVC
Формат/Информация : Advanced Video Codec
Профиль формата : High@L4.1
Параметр CABAC формата : Да
Параметр ReFrames формата : 4 кадра
Идентификатор кодека : avc1
Идентификатор кодека/Информация : Advanced Video Coding
Продолжительность : 23 м.
Битрейт : 2392 Кбит/сек
Максимальный битрейт : 22,9 Мбит/сек
Ширина : 1280 пикселей
Высота : 720 пикселей
Соотношение сторон : 16:9
Режим частоты кадров : Переменный
Частота кадров : 23,976 кадра/сек
Минимальная частота кадров : 23,974 кадра/сек
Максимальная частота кадров : 23,981 кадра/сек
Цветовое пространство : YUV
Субдискретизация насыщенности : 4:2:0
Битовая глубина : 8 бит
Тип развёртки : Прогрессивная
Бит/(Пиксели*Кадры) : 0.108
Размер потока : 405 Мбайт (85%)
Библиотека кодирования : x264 core 129 r2245+729M 1a52e03
Настройки программы : cabac=1 / ref=4 / deblock=1:1:-1 / analyse=0x3:0x113 / me=umh / subme=9 / psy=1 / fade_compensate=0.00 / psy_rd=1.00:0.00 / mixed_ref=1 / me_range=24 / chroma_me=1 / trellis=2 / 8x8dct=1 / cqm=0 / deadzone=21,11 / fast_pskip=1 / chroma_qp_offset=-2 / threads=8 / lookahead_threads=1 / sliced_threads=0 / nr=0 / decimate=1 / interlaced=0 / bluray_compat=0 / constrained_intra=0 / fgo=0 / bframes=9 / b_pyramid=2 / b_adapt=2 / b_bias=0 / direct=1 / weightb=1 / open_gop=0 / weightp=2 / keyint=240 / keyint_min=24 / scenecut=40 / intra_refresh=0 / rc=crf / mbtree=0 / crf=17.0 / qcomp=0.72 / qpmin=0 / qpmax=69 / qpstep=4 / ip_ratio=1.40 / pb_ratio=1.30 / aq=1:0.85
Язык : English
Дата кодирования : UTC 2014-11-08 20:38:04
Дата пометки : UTC 2014-11-18 13:40:55
Основные цвета : BT.709
Характеристики трансфера : BT.709
Коэффициенты матрицы : BT.709
Аудио #1
Идентификатор : 2
Формат : MPEG Audio
Версия формата : Version 1
Профиль формата : Layer 3
Режим : Joint stereo
Идентификатор кодека : 6B
Продолжительность : 23 м.
Вид битрейта : Постоянный
Битрейт : 224 Кбит/сек
Максимальный битрейт : 231 Кбит/сек
Каналы : 2 канала
Частота : 48,0 КГц
Метод сжатия : С потерями
Размер потока : 38,0 Мбайт (8%)
Библиотека кодирования : LAME3.99.5
Язык : Russian
Дата кодирования : UTC 2014-11-18 13:40:54
Дата пометки : UTC 2014-11-18 13:40:55
Аудио #2
Идентификатор : 3
Формат : MPEG Audio
Версия формата : Version 1
Профиль формата : Layer 3
Режим : Joint stereo
Идентификатор кодека : 6B
Продолжительность : 23 м.
Вид битрейта : Постоянный
Битрейт : 192 Кбит/сек
Максимальный битрейт : 198 Кбит/сек
Каналы : 2 канала
Частота : 48,0 КГц
Метод сжатия : С потерями
Размер потока : 32,5 Мбайт (7%)
Библиотека кодирования : LAME3.99.5
Язык : Japanese
Дата кодирования : UTC 2014-11-18 13:40:55
Дата пометки : UTC 2014-11-18 13:40:55
Общее
Полное имя : K:KinozalSword.Art.Online.II.2014.x264.HDTVRip.720pSword.Art.Online.II.(19.serija).2014.x264.HDTVRip.720p.ass
Размер файла : 47,6 Кбайт
Общее
Полное имя : K:KinozalSword.Art.Online.II.2014.x264.HDTVRip.720pSword.Art.Online.II.(19.serija).2014.x264.HDTVRip.720p.mp4
Формат : MPEG-4
Профиль формата : Base Media
Идентификатор кодека : isom
Размер файла : 507 Мбайт
Продолжительность : 23 м.
Общий поток : 2994 Кбит/сек
Дата кодирования : UTC 2014-12-27 00:07:24
Дата пометки : UTC 2014-12-27 00:07:24
Программа кодирования : Yamb 2.1.0.0 [http://yamb.unite-video.com]
Видео
Идентификатор : 1
Формат : AVC
Формат/Информация : Advanced Video Codec
Профиль формата : High@L4.1
Параметр CABAC формата : Да
Параметр ReFrames формата : 4 кадра
Идентификатор кодека : avc1
Идентификатор кодека/Информация : Advanced Video Coding
Продолжительность : 23 м.
Битрейт : 2575 Кбит/сек
Максимальный битрейт : 22,4 Мбит/сек
Ширина : 1280 пикселей
Высота : 720 пикселей
Соотношение сторон : 16:9
Режим частоты кадров : Переменный
Частота кадров : 23,976 кадра/сек
Минимальная частота кадров : 23,974 кадра/сек
Максимальная частота кадров : 23,981 кадра/сек
Цветовое пространство : YUV
Субдискретизация насыщенности : 4:2:0
Битовая глубина : 8 бит
Тип развёртки : Прогрессивная
Бит/(Пиксели*Кадры) : 0.117
Размер потока : 436 Мбайт (86%)
Библиотека кодирования : x264 core 129 r2245+729M 1a52e03
Настройки программы : cabac=1 / ref=4 / deblock=1:1:-1 / analyse=0x3:0x113 / me=umh / subme=9 / psy=1 / fade_compensate=0.00 / psy_rd=1.00:0.00 / mixed_ref=1 / me_range=24 / chroma_me=1 / trellis=2 / 8x8dct=1 / cqm=0 / deadzone=21,11 / fast_pskip=1 / chroma_qp_offset=-2 / threads=8 / lookahead_threads=1 / sliced_threads=0 / nr=0 / decimate=1 / interlaced=0 / bluray_compat=0 / constrained_intra=0 / fgo=0 / bframes=9 / b_pyramid=2 / b_adapt=2 / b_bias=0 / direct=1 / weightb=1 / open_gop=0 / weightp=2 / keyint=240 / keyint_min=24 / scenecut=40 / intra_refresh=0 / rc=crf / mbtree=0 / crf=17.0 / qcomp=0.72 / qpmin=0 / qpmax=69 / qpstep=4 / ip_ratio=1.40 / pb_ratio=1.30 / aq=1:0.85
Язык : English
Дата кодирования : UTC 2014-11-16 08:43:29
Дата пометки : UTC 2014-12-27 00:07:43
Основные цвета : BT.709
Характеристики трансфера : BT.709
Коэффициенты матрицы : BT.709
Аудио #1
Идентификатор : 2
Формат : MPEG Audio
Версия формата : Version 1
Профиль формата : Layer 3
Режим : Joint stereo
Расширение режима : MS Stereo
Идентификатор кодека : 6B
Продолжительность : 23 м.
Вид битрейта : Постоянный
Битрейт : 224 Кбит/сек
Максимальный битрейт : 231 Кбит/сек
Каналы : 2 канала
Частота : 48,0 КГц
Метод сжатия : С потерями
Размер потока : 37,9 Мбайт (7%)
Библиотека кодирования : LAME3.99.5
Язык : Russian
Дата кодирования : UTC 2014-12-27 00:07:35
Дата пометки : UTC 2014-12-27 00:07:43
Аудио #2
Идентификатор : 3
Формат : MPEG Audio
Версия формата : Version 1
Профиль формата : Layer 3
Режим : Joint stereo
Расширение режима : MS Stereo
Идентификатор кодека : 6B
Продолжительность : 23 м.
Вид битрейта : Постоянный
Битрейт : 192 Кбит/сек
Максимальный битрейт : 198 Кбит/сек
Каналы : 2 канала
Частота : 48,0 КГц
Метод сжатия : С потерями
Размер потока : 32,5 Мбайт (6%)
Библиотека кодирования : LAME3.99.5
Язык : Japanese
Дата кодирования : UTC 2014-12-27 00:07:35
Дата пометки : UTC 2014-12-27 00:07:43
Общее
Полное имя : K:KinozalSword.Art.Online.II.2014.x264.HDTVRip.720pSword.Art.Online.II.(20.serija).2014.x264.HDTVRip.720p.ass
Размер файла : 54,7 Кбайт
Общее
Полное имя : K:KinozalSword.Art.Online.II.2014.x264.HDTVRip.720pSword.Art.Online.II.(20.serija).2014.x264.HDTVRip.720p.mp4
Формат : MPEG-4
Профиль формата : Base Media
Идентификатор кодека : isom
Размер файла : 466 Мбайт
Продолжительность : 23 м.
Общий поток : 2754 Кбит/сек
Дата кодирования : UTC 2014-12-27 00:08:58
Дата пометки : UTC 2014-12-27 00:08:58
Программа кодирования : Yamb 2.1.0.0 [http://yamb.unite-video.com]
Видео
Идентификатор : 1
Формат : AVC
Формат/Информация : Advanced Video Codec
Профиль формата : High@L4.1
Параметр CABAC формата : Да
Параметр ReFrames формата : 4 кадра
Идентификатор кодека : avc1
Идентификатор кодека/Информация : Advanced Video Coding
Продолжительность : 23 м.
Битрейт : 2335 Кбит/сек
Максимальный битрейт : 22,9 Мбит/сек
Ширина : 1280 пикселей
Высота : 720 пикселей
Соотношение сторон : 16:9
Режим частоты кадров : Переменный
Частота кадров : 23,976 кадра/сек
Минимальная частота кадров : 23,974 кадра/сек
Максимальная частота кадров : 23,981 кадра/сек
Цветовое пространство : YUV
Субдискретизация насыщенности : 4:2:0
Битовая глубина : 8 бит
Тип развёртки : Прогрессивная
Бит/(Пиксели*Кадры) : 0.106
Размер потока : 395 Мбайт (85%)
Библиотека кодирования : x264 core 129 r2245+729M 1a52e03
Настройки программы : cabac=1 / ref=4 / deblock=1:1:-1 / analyse=0x3:0x113 / me=umh / subme=9 / psy=1 / fade_compensate=0.00 / psy_rd=1.00:0.00 / mixed_ref=1 / me_range=24 / chroma_me=1 / trellis=2 / 8x8dct=1 / cqm=0 / deadzone=21,11 / fast_pskip=1 / chroma_qp_offset=-2 / threads=8 / lookahead_threads=1 / sliced_threads=0 / nr=0 / decimate=1 / interlaced=0 / bluray_compat=0 / constrained_intra=0 / fgo=0 / bframes=9 / b_pyramid=2 / b_adapt=2 / b_bias=0 / direct=1 / weightb=1 / open_gop=0 / weightp=2 / keyint=240 / keyint_min=24 / scenecut=40 / intra_refresh=0 / rc=crf / mbtree=0 / crf=17.0 / qcomp=0.72 / qpmin=0 / qpmax=69 / qpstep=4 / ip_ratio=1.40 / pb_ratio=1.30 / aq=1:0.85
Язык : English
Дата кодирования : UTC 2014-11-23 04:48:01
Дата пометки : UTC 2014-12-27 00:09:56
Основные цвета : BT.709
Характеристики трансфера : BT.709
Коэффициенты матрицы : BT.709
Аудио #1
Идентификатор : 2
Формат : MPEG Audio
Версия формата : Version 1
Профиль формата : Layer 3
Режим : Joint stereo
Идентификатор кодека : 6B
Продолжительность : 23 м.
Вид битрейта : Постоянный
Битрейт : 224 Кбит/сек
Максимальный битрейт : 231 Кбит/сек
Каналы : 2 канала
Частота : 48,0 КГц
Метод сжатия : С потерями
Размер потока : 37,9 Мбайт (8%)
Библиотека кодирования : LAME3.99.5
Язык : Russian
Дата кодирования : UTC 2014-12-27 00:09:45
Дата пометки : UTC 2014-12-27 00:09:56
Аудио #2
Идентификатор : 3
Формат : MPEG Audio
Версия формата : Version 1
Профиль формата : Layer 3
Режим : Joint stereo
Расширение режима : MS Stereo
Идентификатор кодека : 6B
Продолжительность : 23 м.
Вид битрейта : Постоянный
Битрейт : 192 Кбит/сек
Максимальный битрейт : 198 Кбит/сек
Каналы : 2 канала
Частота : 48,0 КГц
Метод сжатия : С потерями
Размер потока : 32,5 Мбайт (7%)
Библиотека кодирования : LAME3.99.5
Язык : Japanese
Дата кодирования : UTC 2014-12-27 00:09:49
Дата пометки : UTC 2014-12-27 00:09:56
Общее
Полное имя : K:KinozalSword.Art.Online.II.2014.x264.HDTVRip.720pSword.Art.Online.II.(21.serija).2014.x264.HDTVRip.720p.ass
Размер файла : 44,7 Кбайт
Общее
Полное имя : K:KinozalSword.Art.Online.II.2014.x264.HDTVRip.720pSword.Art.Online.II.(21.serija).2014.x264.HDTVRip.720p.mp4
Формат : MPEG-4
Профиль формата : Base Media
Идентификатор кодека : isom
Размер файла : 540 Мбайт
Продолжительность : 23 м.
Общий поток : 3190 Кбит/сек
Дата кодирования : UTC 2014-12-27 00:12:37
Дата пометки : UTC 2014-12-27 00:12:37
Программа кодирования : Yamb 2.1.0.0 [http://yamb.unite-video.com]
Видео
Идентификатор : 1
Формат : AVC
Формат/Информация : Advanced Video Codec
Профиль формата : High@L4.1
Параметр CABAC формата : Да
Параметр ReFrames формата : 4 кадра
Идентификатор кодека : avc1
Идентификатор кодека/Информация : Advanced Video Coding
Продолжительность : 23 м.
Битрейт : 2771 Кбит/сек
Максимальный битрейт : 22,4 Мбит/сек
Ширина : 1280 пикселей
Высота : 720 пикселей
Соотношение сторон : 16:9
Режим частоты кадров : Переменный
Частота кадров : 23,976 кадра/сек
Минимальная частота кадров : 23,974 кадра/сек
Максимальная частота кадров : 23,981 кадра/сек
Цветовое пространство : YUV
Субдискретизация насыщенности : 4:2:0
Битовая глубина : 8 бит
Тип развёртки : Прогрессивная
Бит/(Пиксели*Кадры) : 0.125
Размер потока : 469 Мбайт (87%)
Библиотека кодирования : x264 core 129 r2245+729M 1a52e03
Настройки программы : cabac=1 / ref=4 / deblock=1:1:-1 / analyse=0x3:0x113 / me=umh / subme=9 / psy=1 / fade_compensate=0.00 / psy_rd=1.00:0.00 / mixed_ref=1 / me_range=24 / chroma_me=1 / trellis=2 / 8x8dct=1 / cqm=0 / deadzone=21,11 / fast_pskip=1 / chroma_qp_offset=-2 / threads=8 / lookahead_threads=1 / sliced_threads=0 / nr=0 / decimate=1 / interlaced=0 / bluray_compat=0 / constrained_intra=0 / fgo=0 / bframes=9 / b_pyramid=2 / b_adapt=2 / b_bias=0 / direct=1 / weightb=1 / open_gop=0 / weightp=2 / keyint=240 / keyint_min=24 / scenecut=40 / intra_refresh=0 / rc=crf / mbtree=0 / crf=17.0 / qcomp=0.72 / qpmin=0 / qpmax=69 / qpstep=4 / ip_ratio=1.40 / pb_ratio=1.30 / aq=1:0.85
Язык : English
Дата кодирования : UTC 2014-11-30 04:17:30
Дата пометки : UTC 2014-12-27 00:12:51
Основные цвета : BT.709
Характеристики трансфера : BT.709
Коэффициенты матрицы : BT.709
Аудио #1
Идентификатор : 2
Формат : MPEG Audio
Версия формата : Version 1
Профиль формата : Layer 3
Режим : Joint stereo
Расширение режима : MS Stereo
Идентификатор кодека : 6B
Продолжительность : 23 м.
Вид битрейта : Постоянный
Битрейт : 224 Кбит/сек
Максимальный битрейт : 231 Кбит/сек
Каналы : 2 канала
Частота : 48,0 КГц
Метод сжатия : С потерями
Размер потока : 37,9 Мбайт (7%)
Библиотека кодирования : LAME3.99.5
Язык : Russian
Дата кодирования : UTC 2014-12-27 00:12:49
Дата пометки : UTC 2014-12-27 00:12:51
Аудио #2
Идентификатор : 3
Формат : MPEG Audio
Версия формата : Version 1
Профиль формата : Layer 3
Режим : Joint stereo
Расширение режима : MS Stereo
Идентификатор кодека : 6B
Продолжительность : 23 м.
Вид битрейта : Постоянный
Битрейт : 192 Кбит/сек
Максимальный битрейт : 198 Кбит/сек
Каналы : 2 канала
Частота : 48,0 КГц
Метод сжатия : С потерями
Размер потока : 32,5 Мбайт (6%)
Библиотека кодирования : LAME3.99.5
Язык : Japanese
Дата кодирования : UTC 2014-12-27 00:12:49
Дата пометки : UTC 2014-12-27 00:12:51
Общее
Полное имя : K:KinozalSword.Art.Online.II.2014.x264.HDTVRip.720pSword.Art.Online.II.(22.serija).2014.x264.HDTVRip.720p.ass
Размер файла : 55,4 Кбайт
Общее
Полное имя : K:KinozalSword.Art.Online.II.2014.x264.HDTVRip.720pSword.Art.Online.II.(22.serija).2014.x264.HDTVRip.720p.mp4
Формат : MPEG-4
Профиль формата : Base Media
Идентификатор кодека : isom
Размер файла : 421 Мбайт
Продолжительность : 23 м.
Общий поток : 2490 Кбит/сек
Дата кодирования : UTC 2014-12-27 00:15:59
Дата пометки : UTC 2014-12-27 00:15:59
Программа кодирования : Yamb 2.1.0.0 [http://yamb.unite-video.com]
Видео
Идентификатор : 1
Формат : AVC
Формат/Информация : Advanced Video Codec
Профиль формата : High@L4.1
Параметр CABAC формата : Да
Параметр ReFrames формата : 4 кадра
Идентификатор кодека : avc1
Идентификатор кодека/Информация : Advanced Video Coding
Продолжительность : 23 м.
Битрейт : 2071 Кбит/сек
Максимальный битрейт : 23,2 Мбит/сек
Ширина : 1280 пикселей
Высота : 720 пикселей
Соотношение сторон : 16:9
Режим частоты кадров : Переменный
Частота кадров : 23,976 кадра/сек
Минимальная частота кадров : 23,974 кадра/сек
Максимальная частота кадров : 23,981 кадра/сек
Цветовое пространство : YUV
Субдискретизация насыщенности : 4:2:0
Битовая глубина : 8 бит
Тип развёртки : Прогрессивная
Бит/(Пиксели*Кадры) : 0.094
Размер потока : 350 Мбайт (83%)
Библиотека кодирования : x264 core 129 r2245+729M 1a52e03
Настройки программы : cabac=1 / ref=4 / deblock=1:1:-1 / analyse=0x3:0x113 / me=umh / subme=9 / psy=1 / fade_compensate=0.00 / psy_rd=1.00:0.00 / mixed_ref=1 / me_range=24 / chroma_me=1 / trellis=2 / 8x8dct=1 / cqm=0 / deadzone=21,11 / fast_pskip=1 / chroma_qp_offset=-2 / threads=8 / lookahead_threads=1 / sliced_threads=0 / nr=0 / decimate=1 / interlaced=0 / bluray_compat=0 / constrained_intra=0 / fgo=0 / bframes=9 / b_pyramid=2 / b_adapt=2 / b_bias=0 / direct=1 / weightb=1 / open_gop=0 / weightp=2 / keyint=240 / keyint_min=24 / scenecut=40 / intra_refresh=0 / rc=crf / mbtree=0 / crf=17.0 / qcomp=0.72 / qpmin=0 / qpmax=69 / qpstep=4 / ip_ratio=1.40 / pb_ratio=1.30 / aq=1:0.85
Язык : English
Дата кодирования : UTC 2014-12-07 14:10:56
Дата пометки : UTC 2014-12-27 00:16:11
Основные цвета : BT.709
Характеристики трансфера : BT.709
Коэффициенты матрицы : BT.709
Аудио #1
Идентификатор : 2
Формат : MPEG Audio
Версия формата : Version 1
Профиль формата : Layer 3
Режим : Joint stereo
Идентификатор кодека : 6B
Продолжительность : 23 м.
Вид битрейта : Постоянный
Битрейт : 224 Кбит/сек
Максимальный битрейт : 231 Кбит/сек
Каналы : 2 канала
Частота : 48,0 КГц
Метод сжатия : С потерями
Размер потока : 37,9 Мбайт (9%)
Библиотека кодирования : LAME3.99.5
Язык : Russian
Дата кодирования : UTC 2014-12-27 00:16:09
Дата пометки : UTC 2014-12-27 00:16:11
Аудио #2
Идентификатор : 3
Формат : MPEG Audio
Версия формата : Version 1
Профиль формата : Layer 3
Режим : Joint stereo
Расширение режима : MS Stereo
Идентификатор кодека : 6B
Продолжительность : 23 м.
Вид битрейта : Постоянный
Битрейт : 192 Кбит/сек
Максимальный битрейт : 198 Кбит/сек
Каналы : 2 канала
Частота : 48,0 КГц
Метод сжатия : С потерями
Размер потока : 32,5 Мбайт (8%)
Библиотека кодирования : LAME3.99.5
Язык : Japanese
Дата кодирования : UTC 2014-12-27 00:16:10
Дата пометки : UTC 2014-12-27 00:16:11
Общее
Полное имя : K:KinozalSword.Art.Online.II.2014.x264.HDTVRip.720pSword.Art.Online.II.(23.serija).2014.x264.HDTVRip.720p.ass
Размер файла : 53,1 Кбайт
Общее
Полное имя : K:KinozalSword.Art.Online.II.2014.x264.HDTVRip.720pSword.Art.Online.II.(23.serija).2014.x264.HDTVRip.720p.mp4
Формат : MPEG-4
Профиль формата : Base Media
Идентификатор кодека : isom
Размер файла : 412 Мбайт
Продолжительность : 23 м.
Общий поток : 2434 Кбит/сек
Дата кодирования : UTC 2014-12-27 00:17:15
Дата пометки : UTC 2014-12-27 00:17:15
Программа кодирования : Yamb 2.1.0.0 [http://yamb.unite-video.com]
Видео
Идентификатор : 1
Формат : AVC
Формат/Информация : Advanced Video Codec
Профиль формата : High@L4.1
Параметр CABAC формата : Да
Параметр ReFrames формата : 4 кадра
Идентификатор кодека : avc1
Идентификатор кодека/Информация : Advanced Video Coding
Продолжительность : 23 м.
Битрейт : 2015 Кбит/сек
Максимальный битрейт : 21,7 Мбит/сек
Ширина : 1280 пикселей
Высота : 720 пикселей
Соотношение сторон : 16:9
Режим частоты кадров : Переменный
Частота кадров : 23,976 кадра/сек
Минимальная частота кадров : 23,974 кадра/сек
Максимальная частота кадров : 23,981 кадра/сек
Цветовое пространство : YUV
Субдискретизация насыщенности : 4:2:0
Битовая глубина : 8 бит
Тип развёртки : Прогрессивная
Бит/(Пиксели*Кадры) : 0.091
Размер потока : 341 Мбайт (83%)
Библиотека кодирования : x264 core 129 r2245+729M 1a52e03
Настройки программы : cabac=1 / ref=4 / deblock=1:1:-1 / analyse=0x3:0x113 / me=umh / subme=9 / psy=1 / fade_compensate=0.00 / psy_rd=1.00:0.00 / mixed_ref=1 / me_range=24 / chroma_me=1 / trellis=2 / 8x8dct=1 / cqm=0 / deadzone=21,11 / fast_pskip=1 / chroma_qp_offset=-2 / threads=8 / lookahead_threads=1 / sliced_threads=0 / nr=0 / decimate=1 / interlaced=0 / bluray_compat=0 / constrained_intra=0 / fgo=0 / bframes=9 / b_pyramid=2 / b_adapt=2 / b_bias=0 / direct=1 / weightb=1 / open_gop=0 / weightp=2 / keyint=240 / keyint_min=24 / scenecut=40 / intra_refresh=0 / rc=crf / mbtree=0 / crf=17.0 / qcomp=0.72 / qpmin=0 / qpmax=69 / qpstep=4 / ip_ratio=1.40 / pb_ratio=1.30 / aq=1:0.85
Язык : English
Дата кодирования : UTC 2014-12-14 10:00:48
Дата пометки : UTC 2014-12-27 00:17:26
Основные цвета : BT.709
Характеристики трансфера : BT.709
Коэффициенты матрицы : BT.709
Аудио #1
Идентификатор : 2
Формат : MPEG Audio
Версия формата : Version 1
Профиль формата : Layer 3
Режим : Joint stereo
Идентификатор кодека : 6B
Продолжительность : 23 м.
Вид битрейта : Постоянный
Битрейт : 224 Кбит/сек
Максимальный битрейт : 231 Кбит/сек
Каналы : 2 канала
Частота : 48,0 КГц
Метод сжатия : С потерями
Размер потока : 37,9 Мбайт (9%)
Библиотека кодирования : LAME3.99.5
Язык : Russian
Дата кодирования : UTC 2014-12-27 00:17:23
Дата пометки : UTC 2014-12-27 00:17:26
Аудио #2
Идентификатор : 3
Формат : MPEG Audio
Версия формата : Version 1
Профиль формата : Layer 3
Режим : Joint stereo
Идентификатор кодека : 6B
Продолжительность : 23 м.
Вид битрейта : Постоянный
Битрейт : 192 Кбит/сек
Максимальный битрейт : 198 Кбит/сек
Каналы : 2 канала
Частота : 48,0 КГц
Метод сжатия : С потерями
Размер потока : 32,5 Мбайт (8%)
Библиотека кодирования : LAME3.99.5
Язык : Japanese
Дата кодирования : UTC 2014-12-27 00:17:25
Дата пометки : UTC 2014-12-27 00:17:26
Общее
Полное имя : K:KinozalSword.Art.Online.II.2014.x264.HDTVRip.720pSword.Art.Online.II.(24.serija).2014.x264.HDTVRip.720p.ass
Размер файла : 41,3 Кбайт
Общее
Полное имя : K:KinozalSword.Art.Online.II.2014.x264.HDTVRip.720pSword.Art.Online.II.(24.serija).2014.x264.HDTVRip.720p.mp4
Формат : MPEG-4
Профиль формата : Base Media
Идентификатор кодека : isom
Размер файла : 404 Мбайт
Продолжительность : 23 м.
Общий поток : 2384 Кбит/сек
Дата кодирования : UTC 2014-12-27 00:18:30
Дата пометки : UTC 2014-12-27 00:18:30
Программа кодирования : Yamb 2.1.0.0 [http://yamb.unite-video.com]
Видео
Идентификатор : 1
Формат : AVC
Формат/Информация : Advanced Video Codec
Профиль формата : High@L4.1
Параметр CABAC формата : Да
Параметр ReFrames формата : 4 кадра
Идентификатор кодека : avc1
Идентификатор кодека/Информация : Advanced Video Coding
Продолжительность : 23 м.
Битрейт : 1965 Кбит/сек
Максимальный битрейт : 12,9 Мбит/сек
Ширина : 1280 пикселей
Высота : 720 пикселей
Соотношение сторон : 16:9
Режим частоты кадров : Переменный
Частота кадров : 23,976 кадра/сек
Минимальная частота кадров : 23,974 кадра/сек
Максимальная частота кадров : 23,981 кадра/сек
Цветовое пространство : YUV
Субдискретизация насыщенности : 4:2:0
Битовая глубина : 8 бит
Тип развёртки : Прогрессивная
Бит/(Пиксели*Кадры) : 0.089
Размер потока : 333 Мбайт (82%)
Библиотека кодирования : x264 core 129 r2245+729M 1a52e03
Настройки программы : cabac=1 / ref=4 / deblock=1:1:-1 / analyse=0x3:0x113 / me=umh / subme=9 / psy=1 / fade_compensate=0.00 / psy_rd=1.00:0.00 / mixed_ref=1 / me_range=24 / chroma_me=1 / trellis=2 / 8x8dct=1 / cqm=0 / deadzone=21,11 / fast_pskip=1 / chroma_qp_offset=-2 / threads=8 / lookahead_threads=1 / sliced_threads=0 / nr=0 / decimate=1 / interlaced=0 / bluray_compat=0 / constrained_intra=0 / fgo=0 / bframes=9 / b_pyramid=2 / b_adapt=2 / b_bias=0 / direct=1 / weightb=1 / open_gop=0 / weightp=2 / keyint=240 / keyint_min=24 / scenecut=40 / intra_refresh=0 / rc=crf / mbtree=0 / crf=17.0 / qcomp=0.72 / qpmin=0 / qpmax=69 / qpstep=4 / ip_ratio=1.40 / pb_ratio=1.30 / aq=1:0.85
Язык : English
Дата кодирования : UTC 2014-12-21 05:48:20
Дата пометки : UTC 2014-12-27 00:18:41
Основные цвета : BT.709
Характеристики трансфера : BT.709
Коэффициенты матрицы : BT.709
Аудио #1
Идентификатор : 2
Формат : MPEG Audio
Версия формата : Version 1
Профиль формата : Layer 3
Режим : Joint stereo
Расширение режима : MS Stereo
Идентификатор кодека : 6B
Продолжительность : 23 м.
Вид битрейта : Постоянный
Битрейт : 224 Кбит/сек
Максимальный битрейт : 231 Кбит/сек
Каналы : 2 канала
Частота : 48,0 КГц
Метод сжатия : С потерями
Размер потока : 37,9 Мбайт (9%)
Библиотека кодирования : LAME3.99.5
Язык : Russian
Дата кодирования : UTC 2014-12-27 00:18:37
Дата пометки : UTC 2014-12-27 00:18:41
Аудио #2
Идентификатор : 3
Формат : MPEG Audio
Версия формата : Version 1
Профиль формата : Layer 3
Режим : Joint stereo
Расширение режима : MS Stereo
Идентификатор кодека : 6B
Продолжительность : 23 м.
Вид битрейта : Постоянный
Битрейт : 192 Кбит/сек
Максимальный битрейт : 198 Кбит/сек
Каналы : 2 канала
Частота : 48,0 КГц
Метод сжатия : С потерями
Размер потока : 32,5 Мбайт (8%)
Библиотека кодирования : LAME3.99.5
Язык : Japanese
Дата кодирования : UTC 2014-12-27 00:18:40
Дата пометки : UTC 2014-12-27 00:18:41
[/spoiler]
[spoiler="Список серий"]
01. Мир ружей
02. Ледяной снайпер
03. Кровавые воспоминания
04. ГГО
05. Пистолет и клинок
06. Схватка в пустоши
07. Багровые воспоминания
08. Золотая пуля
09. Дэс Ган
10. Убегая от смерти
11. Цена силы
12. Призрачная пуля
13. Призрачная пуля, акт второй
14. Последний шаг
15. Владычица озера
16. Князь великанов
17. Экскалибр
18. Домик в лесу
19. Совершенный Меч
20. Спящие рыцари
21. Мемориал мечников
22. Конец пути
23. Начало грёз
24. Молитва матери
[/spoiler]
[spoiler="Скриншоты"]
[url=http://radikal.ru/fp/6f9ed469febb4043927acfcdadafbe03][img]http://s018.radikal.ru/i526/1503/ea/76ffd654c785t.jpg[/img][/url] [url=http://radikal.ru/fp/836a22df233f4a7a81428c894def802f][img]http://s019.radikal.ru/i628/1503/b0/145f0b057208t.jpg[/img][/url] [url=http://radikal.ru/fp/61e07be83a5f4eed88691c218570a93a][img]http://s019.radikal.ru/i643/1503/45/9bef3f4cfaadt.jpg[/img][/url] [url=http://radikal.ru/fp/c6b125f286f44ad4b3234023b491dc6d][img]http://s018.radikal.ru/i528/1503/cb/69893d54ee0et.jpg[/img][/url]
[/spoiler]



   Похожие торренты   Торрент   Размер 
В этой теме нет новых непрочитанных сообщений. Мастера меча онлайн II / Sword Art Online II [01-24 из 24] (2014) HDTVRip 720p | L1

72 | 47

8.42 ГБ

В этой теме нет новых непрочитанных сообщений. Искусство Меча Онлайн: спешл / Мастера Меча Онлайн (спешл) / Sword Art Online: Extra Edition [Special] (2013) HDTVRip 720p | L1

150 | 12

1.36 ГБ

В этой теме нет новых непрочитанных сообщений. Мастера меча онлайн II / Sword Art Online II [01-21 из 24] (2014) HDTVRip 720p от AniPlay | L2

27 | 48

7.62 ГБ

В этой теме нет новых непрочитанных сообщений. Мастера меча онлайн II / Sword Art Online II [01-14.5 из 24] (2014) HDTVRip 720p от AniPlay | L2

20 | 41

5.19 ГБ

В этой теме нет новых непрочитанных сообщений. Мастера меча онлайн II / Sword Art Online II [01-18 из 24] (2014) HDTVRip 720p от AniPlay | L2

48 | 108

6.58 ГБ

В этой теме нет новых непрочитанных сообщений. Мастера меча онлайн II / Sword Art Online II [01-24 из 24] (2014) HDTVRip 720p от AniDUB | L2

133 | 23

10.89 ГБ

В этой теме нет новых непрочитанных сообщений. Мастера меча онлайн II / Sword Art Online II [01-09 из 24] (2014) HDTVRip 720p от AniPlay | L2

14 | 43

3.11 ГБ




Вы не можете начинать темы
Вы не можете отвечать на сообщения
Вы не можете редактировать свои сообщения
Вы не можете удалять свои сообщения
Вы не можете добавлять вложения

Перейти:  
Для Мосгорсуда, Роскомнадзора и рекламодателей: mosgorsud-torrent[собачка]yandex.ru
 Вход
ppkBB3cker v.2 © 2008-2014 @ PPK
[ Time : 0.533s | 16 Queries | GZIP : Off ]

cron