img image001 image001 image001 image001 image001 image001 image001 image001 image001 image001 image001 image001 image001 image001 image001 image001

Planets Sun Sun Sun
Статистика раздачи
Автор: Nickolas3434 | Размер: 153.97 МБ | Добавлен: 01 апр 2015
Раздают: 3    Качают: 2
Скачать торрент
Скачать торрент
Описание торрента

СообщениеДобавлено: 01 апр 2015 

Год выпуска: 1997
Страна: япония
Жанр: комедия, фэнтези, школа
Продолжительность: короткометражный фильм, 10 мин.
Озвучка: одноголосая женская Persona99
Русские субтитры: есть
Перевод: WarMaker
Хардсаб: Нет
две звуковые дорожки:
1. русский закадровый.
2. оригина.яп.
Режиссер: Дайти Акитаро
Описание:
Аниме по мотивам игры для Sega Saturn/Sega Master System - "Magic School LUNAR!"/"Lunar Walking School", побочной линии игрового сериала Lunar. Сам мульт очень короткий и является чистейшим стёбом на аниме такого рода, где обязательно должен быть враг №1, замысливший что-либо нехорошее, и для решения всех проблем посылают героя, с которым происходят всякого рода события, и наш герой лихо с ними справляется. В данном контексте герой - троица, а лихо - в кавычках. В общем, очень хорошее и забавное аниме.

Качество: TVRip
Формат: AVI
Видео кодек: XviD
Аудио кодек: MP3
Видео: XVID; 624 x 398; 23.976; 1780 kbps.
Аудио: RUS - JAP 48000Hz 160 kb/s tot , 2.0

Код:
Codec ID/Hint                    : XviD
Duration                         : 10mn 10s
Bit rate                         : 1780 Kbps
Width                            : 624 pixels
Height                           : 398 pixels
Display aspect ratio             : 1.568
Frame rate                       : 23.976 fps
Resolution                       : 8 bits
Colorimetry                      : 4:2:0
Scan type                        : Progressive
Bits/(Pixel*Frame)               : 0.299
Stream size                      : 130 MiB (84%)
Writing library                  : XviD 50
Audio #1
Format                           : MPEG Audio
Format version                   : Version 1
Format profile                   : Layer 3
Codec ID                         : 55
Codec ID/Hint                    : MP3
Duration                         : 10mn 10s
Bit rate mode                    : Constant
Bit rate                         : 160 Kbps
Channel(s)                       : 2 channels
Sampling rate                    : 48.0 KHz
Resolution                       : 16 bits
Stream size                      : 11.7 MiB (8%)
Alignment                        : Aligned on interleaves
Interleave, duration             : 42 ms (1.00 video frame)
Interleave, preload duration     : 504 ms
Audio #2
Format                           : MPEG Audio
Format version                   : Version 1
Format profile                   : Layer 3
Codec ID                         : 55
Codec ID/Hint                    : MP3
Duration                         : 10mn 10s
Bit rate mode                    : Constant
Bit rate                         : 160 Kbps
Minimum bit rate                 : 160 Kbps
Channel(s)                       : 2 channels
Sampling rate                    : 48.0 KHz
Resolution                       : 16 bits
Stream size                      : 11.7 MiB (8%)
Alignment                        : Aligned on interleaves
Interleave, duration             : 42 ms (1.00 video frame)
Interleave, preload duration     : 504 ms
Writing library                  : LAME3.98r
Encoding settings                : CBR
 



   Похожие торренты   Торрент   Размер 
В этой теме нет новых непрочитанных сообщений. Хроники Альбиана 2. Школа магии Визбери / Chronicles of Albian 2: The Wizbury School of Magic (2013) PC

236 | 7

143.43 МБ

В этой теме нет новых непрочитанных сообщений. Сказка о Хвосте феи: Плач дракона / Fairy Tail Movie 2: Dragon Cry (2017) BDRip | Persona99

19 | 2

1.11 ГБ

В этой теме нет новых непрочитанных сообщений. Сказка о Хвосте феи: Плач дракона / Fairy Tail Movie 2: Dragon Cry (2017) BDRip 1080 Hi10P | Persona99

13 | 7

7.47 ГБ

В этой теме нет новых непрочитанных сообщений. Гнездо Дракона: Восстание Черного Дракона / Dragon Nest: Rise of the Black Dragon (2014) HDRip-1080p | Трейлер

30 | 14

84.96 МБ

В этой теме нет новых непрочитанных сообщений. Будущие звезды / Школа любви / Радость жизни / Futures vedettes / School for Love / Joy of Living (1955) TVRip | L1

0 | 2

1.34 ГБ

В этой теме нет новых непрочитанных сообщений. Чародей 2: Страна Великого Дракона / Spellbinder: Land of the Dragon Lord [S02] (1997) DVDRip-AVC | P

29 | 10

12.45 ГБ

В этой теме нет новых непрочитанных сообщений. Школа строгого режима / Школа-тюрьма / Prison School [01 из 10] (2015) HDTVRip 720p от BTT-TEAM и SOUND-GROUP | L2

2 | 1

511.05 МБ




Вы не можете начинать темы
Вы не можете отвечать на сообщения
Вы не можете редактировать свои сообщения
Вы не можете удалять свои сообщения
Вы не можете добавлять вложения

Перейти:  
 Вход
ppkBB3cker v.2 © 2008-2014 @ PPK
[ Time : 0.039s | 18 Queries | GZIP : Off ]

cron