img image001 image001 image001 image001 image001 image001 image001 image001 image001 image001 image001 image001 image001 image001 image001

Planets Sun Sun Sun
Статистика раздачи
Автор: Nickolas3434 | Размер: 1.28 ГБ | Добавлен: 02 апр 2015
Раздают: 62    Качают: 4
Скачать торрент
Скачать торрент
Описание торрента

СообщениеДобавлено: 02 апр 2015 

Doraemon: The New Record of Nobita - Spaceblazer

Страна: Япония
Год выпуска: 2009 г.
Жанр: кодомо, приключения, комедия, фантастика, для детей
Тип: Movie
Продолжительность: полнометражный фильм, 102 мин.
Режиссер: Коси Сигэо
Описание:
Где то во Вселенной есть планета Коойа Коойа.. грозить ей большая опасность.. там найдут себе друзей Нобита и Дораэмон.. и помогут им защищать эту удивительную планету...
Доп. информация: Релиз GSGroup

Качество: HDRip
Тип релиза: Без хардсаба
Формат видео: AVI
Совместимость с бытовыми плеерами: Да
Видео: XviD, 720x400, 23.976 fps, 1 380 Kbps, 8 bits
Аудио 1: AC-3, 192 Kbps, 48.0 KHz, 2 channels Язык Русский (в составе контейнера) ; Озвучка: одноголосая женская Persona99
Аудио 2: AC-3, 192 Kbps, 48.0 KHz, 2 channels Язык Японский
Субтитры: внешние srt Язык субтитров русский ; Перевод: dimaxlink
Код:
General
Complete name               : Doraemon The New Record of Nobita - SpaceblazerDoraemon_Space_Blazer_2009.[Persona99].rus.jpn.avi
Format                      : AVI
Format/Info                 : Audio Video Interleave
File size                   : 1.28 GiB
Duration                    : 1h 42mn
Overall bit rate            : 1 778 Kbps
Writing application         : VirtualDubMod 1.5.10.2 (build 2540/release)
Writing library             : VirtualDubMod build 2540/release
Video
ID                          : 0
Format                      : MPEG-4 Visual
Format profile              : Advanced Simple@L5
Format settings, BVOP       : 2
Format settings, QPel       : No
Format settings, GMC        : No warppoints
Format settings, Matrix     : Default (H.263)
Codec ID                    : XVID
Codec ID/Hint               : XviD
Duration                    : 1h 42mn
Bit rate                    : 1 380 Kbps
Width                       : 720 pixels
Height                      : 400 pixels
Display aspect ratio        : 16:9
Frame rate                  : 23.976 fps
Color space                 : YUV
Chroma subsampling          : 4:2:0
Bit depth                   : 8 bits
Scan type                   : Progressive
Compression mode            : Lossy
Bits/(Pixel*Frame)          : 0.200
Stream size                 : 1 014 MiB (78%)
Writing library             : XviD 1.2.1 (UTC 2008-12-04)
Audio #1
ID                          : 1
Format                      : AC-3
Format/Info                 : Audio Coding 3
Mode extension              : CM (complete main)
Format settings, Endianness : Big
Codec ID                    : 2000
Duration                    : 1h 42mn
Bit rate mode               : Constant
Bit rate                    : 192 Kbps
Channel(s)                  : 2 channels
Channel positions           : Front: L R
Sampling rate               : 48.0 KHz
Bit depth                   : 16 bits
Compression mode            : Lossy
Stream size                 : 141 MiB (11%)
Alignment                   : Split accross interleaves
Interleave, duration        : 42 ms (1.00 video frame)
Interleave, preload duratio : 500 ms
Audio #2
ID                          : 2
Format                      : AC-3
Format/Info                 : Audio Coding 3
Mode extension              : CM (complete main)
Format settings, Endianness : Big
Codec ID                    : 2000
Duration                    : 1h 42mn
Bit rate mode               : Constant
Bit rate                    : 192 Kbps
Channel(s)                  : 2 channels
Channel positions           : Front: L R
Sampling rate               : 48.0 KHz
Bit depth                   : 16 bits
Compression mode            : Lossy
Stream size                 : 141 MiB (11%)
Alignment                   : Split accross interleaves
Interleave, duration        : 42 ms (1.00 video frame)
Interleave, preload duratio : 500 ms
 

Семпл:



   Похожие торренты   Торрент   Размер 
В этой теме нет новых непрочитанных сообщений. Новый Дораэмон 2009 (фильм четвертый) / Doraemon: Spaceblazer [Movie] (2009) HDRip 720 | Persona99

4 | 2

2.32 ГБ

В этой теме нет новых непрочитанных сообщений. Персона 3 (фильм первый) / Persona 3 the Movie: Spring of Birth [Movie] (2013) BDRip 720 | Persona99

137 | 18

1.29 ГБ

В этой теме нет новых непрочитанных сообщений. Персона 3 (фильм первый) / Persona 3 the Movie: Spring of Birth [Movie] (2013) BDRip | Persona99

64 | 10

1.3 ГБ

В этой теме нет новых непрочитанных сообщений. Персона 3 (фильм первый) / Persona 3 the Movie: Spring of Birth [Movie] (2013) BDRip 1080 | Persona99

52 | 22

3.43 ГБ

В этой теме нет новых непрочитанных сообщений. Дораэмон / Doraemon TV [01-70] (1979) DVDRip | L

1 | 3

3.05 ГБ

В этой теме нет новых непрочитанных сообщений. Дораэмон / Doraemon TV [01-90] (1979) DVDRip | L

39 | 10

4.02 ГБ

В этой теме нет новых непрочитанных сообщений. Дораэмон / Doraemon TV [01-80] (1979) DVDRip | L

11 | 4

3.53 ГБ




Вы не можете начинать темы
Вы не можете отвечать на сообщения
Вы не можете редактировать свои сообщения
Вы не можете удалять свои сообщения
Вы не можете добавлять вложения

Перейти:  
Для Мосгорсуда, Роскомнадзора и рекламодателей: mosgorsud-torrent[собачка]yandex.ru
 Вход
ppkBB3cker v.2 © 2008-2014 @ PPK
[ Time : 0.582s | 14 Queries | GZIP : Off ]

Торрент трекер RUTOR.IN, Не можете зайти на rutor.org? Какой новый адрес рутор? Какое зеркало рутор? Не работает rutor.org и зеркала? Тогда наш торрент специально для вас. Rutor.in неофициальное зеркало rutor. В случае если у Вас заблокирован rutor или вдруг Вы не можете на него зайти, то Вы без труда сможете скачать бесплатно и без рекламы последние новинки кино, игр, сериалов и прочего у нас, на Rutor.in. Не нужно использовать прокси, чтобы зайти на рутор, достаточно воспользоваться нашим ресурсом. Все новые фильмы, игры, сериалы, книги и музыка за 2013 и 2014 годы через торрент бесплатно. Скачивайте фильмы в хорошем качестве, игры для пк, xbox, playstation без регистрации. У нас вы найдете новые Зарубежные сериалы и Русские сериалы 2013, 2014, 2015 годов. Оставайтесь с нами, качайте любимые фильмы, игры, сериалы, книги и музыку.