img image001 image001 image001 image001 image001 image001 image001 image001 image001 image001 image001 image001 image001 image001 image001

Planets Sun Sun Sun
Статистика раздачи
Автор: Nickolas3434 | Размер: 2.32 ГБ | Добавлен: 08 апр 2015
Раздают: 4    Качают: 2
Скачать торрент
Скачать торрент
Описание торрента

СообщениеДобавлено: 08 апр 2015 

Doraemon: The New Record of Nobita - Spaceblazer

Страна: Япония
Год выпуска: 2009 г.
Жанр: приключения, комедия, фантастика, для детей, семейный
Тип: Movie
Продолжительность: полнометражный фильм, 102 мин.
Режиссер: Коси Сигэо
Описание:
Где то во Вселенной есть планета Коойа Коойа.. грозить ей большая опасность.. там найдут себе друзей Нобита и Дораэмон.. и помогут им защищать эту удивительную планету...
Доп. информация:
Релиз GSGroup

Качество: HDRip
Тип релиза: Без хардсаба
Формат видео: mkv
Видео: x264, 23.976 fps, 2 465 kbps, 1312 x 720 pixels, 8 bits
Аудио 1: RU - VO, AC-3, 48 KHz, 256 kbps 2 channels Язык Русский (в составе контейнера) ; Озвучка: одноголосая женская Persona99
Аудио 2: JP - AC-3, DD 5.1, 48 KHz, 448 kbps Язык Японский
Субтитры: RU - srt (в составе контейнера) Язык субтитров русский ; Перевод: dimaxlink
Код:
General
Unique ID                                : 242808392279175857512908073676691192065 (0xB6AB32020EC885738F981F1B95AFB901)
Complete name                            : [ARRU]_Doraemon~The_New_Records_of_Nobita~SpaceBlazer_2009.(720p)[Persona99].ru.jpn.mkv
Format                                   : Matroska
Format version                           : Version 2
File size                                : 2.32 GiB
Duration                                 : 1h 42mn
Overall bit rate                         : 3 233 Kbps
Encoded date                             : UTC 2015-04-02 10:33:25
Writing application                      : mkvmerge v4.0.0 ('The Stars were mine') built on Jun  6 2010 16:18:42
Writing library                          : libebml v1.0.0 + libmatroska v1.0.0
Video
ID                                       : 1
Format                                   : AVC
Format/Info                              : Advanced Video Codec
Format profile                           : Main@L4.1
Format settings, CABAC                   : Yes
Format settings, ReFrames                : 7 frames
Codec ID                                 : V_MPEG4/ISO/AVC
Duration                                 : 1h 42mn
Bit rate                                 : 2 465 Kbps
Width                                    : 1 312 pixels
Height                                   : 720 pixels
Display aspect ratio                     : 1.85:1
Frame rate mode                          : Constant
Frame rate                               : 23.976 fps
Color space                              : YUV
Chroma subsampling                       : 4:2:0
Bit depth                                : 8 bits
Scan type                                : Progressive
Bits/(Pixel*Frame)                       : 0.109
Stream size                              : 1.77 GiB (76%)
Writing library                          : x264 core 67 r1145M d2e1e1c
Encoding settings                        : cabac=1 / ref=7 / deblock=1:0:0 / analyse=0x1:0x111 / me=umh / subme=9 / psy_rd=0.1:0.0 / mixed_ref=1 / me_range=32 / chroma_me=1 / trellis=2 / 8x8dct=0 / cqm=0 / deadzone=21,11 / chroma_qp_offset=-1 / threads=6 / nr=0 / decimate=0 / mbaff=0 / bframes=3 / b_pyramid=1 / b_adapt=2 / b_bias=0 / direct=3 / wpredb=1 / keyint=240 / keyint_min=24 / scenecut=60 / rc=crf / crf=19.5 / qcomp=0.60 / qpmin=10 / qpmax=51 / qpstep=4 / ip_ratio=1.40 / pb_ratio=1.30 / aq=1:0.50
Language                                 : Japanese
Default                                  : Yes
Forced                                   : No
Audio #1
ID                                       : 2
Format                                   : AC-3
Format/Info                              : Audio Coding 3
Mode extension                           : CM (complete main)
Format settings, Endianness              : Big
Codec ID                                 : A_AC3
Duration                                 : 1h 42mn
Bit rate mode                            : Constant
Bit rate                                 : 256 Kbps
Channel(s)                               : 2 channels
Channel positions                        : Front: L R
Sampling rate                            : 48.0 KHz
Bit depth                                : 16 bits
Compression mode                         : Lossy
Stream size                              : 188 MiB (8%)
Title                                    : Persona99 (AC3 2.0 ch)
Language                                 : Russian
Default                                  : Yes
Forced                                   : No
Audio #2
ID                                       : 3
Format                                   : AC-3
Format/Info                              : Audio Coding 3
Mode extension                           : CM (complete main)
Format settings, Endianness              : Big
Codec ID                                 : A_AC3
Duration                                 : 1h 42mn
Bit rate mode                            : Constant
Bit rate                                 : 448 Kbps
Channel(s)                               : 6 channels
Channel positions                        : Front: L C R, Side: L R, LFE
Sampling rate                            : 48.0 KHz
Bit depth                                : 16 bits
Compression mode                         : Lossy
Stream size                              : 329 MiB (14%)
Title                                    : AC3 5.1ch
Language                                 : Japanese
Default                                  : No
Forced                                   : No
Text
ID                                       : 4
Format                                   : UTF-8
Codec ID                                 : S_TEXT/UTF8
Codec ID/Info                            : UTF-8 Plain Text
Title                                    : srt
Language                                 : Russian
Default                                  : No
Forced                                   : No
 

Семпл:



   Похожие торренты   Торрент   Размер 
В этой теме нет новых непрочитанных сообщений. Новый Дораэмон 2009 (фильм четвертый) / Doraemon: Spaceblazer [Movie] (2009) HDRip | Persona99

62 | 4

1.28 ГБ

В этой теме нет новых непрочитанных сообщений. Персона 3 (фильм первый) / Persona 3 the Movie: Spring of Birth [Movie] (2013) BDRip 720 | Persona99

137 | 18

1.29 ГБ

В этой теме нет новых непрочитанных сообщений. Персона 3 (фильм первый) / Persona 3 the Movie: Spring of Birth [Movie] (2013) BDRip | Persona99

64 | 10

1.3 ГБ

В этой теме нет новых непрочитанных сообщений. Персона 3 (фильм первый) / Persona 3 the Movie: Spring of Birth [Movie] (2013) BDRip 1080 | Persona99

52 | 22

3.43 ГБ

В этой теме нет новых непрочитанных сообщений. Дораэмон / Doraemon TV [01-90] (1979) DVDRip | L

39 | 10

4.02 ГБ

В этой теме нет новых непрочитанных сообщений. Дораэмон / Doraemon TV [01-70] (1979) DVDRip | L

1 | 3

3.05 ГБ

В этой теме нет новых непрочитанных сообщений. Дораэмон / Doraemon TV [01-80] (1979) DVDRip | L

11 | 4

3.53 ГБ




Вы не можете начинать темы
Вы не можете отвечать на сообщения
Вы не можете редактировать свои сообщения
Вы не можете удалять свои сообщения
Вы не можете добавлять вложения

Перейти:  
Для Мосгорсуда, Роскомнадзора и рекламодателей: mosgorsud-torrent[собачка]yandex.ru
 Вход
ppkBB3cker v.2 © 2008-2014 @ PPK
[ Time : 0.090s | 14 Queries | GZIP : Off ]

Торрент трекер RUTOR.IN, Не можете зайти на rutor.org? Какой новый адрес рутор? Какое зеркало рутор? Не работает rutor.org и зеркала? Тогда наш торрент специально для вас. Rutor.in неофициальное зеркало rutor. В случае если у Вас заблокирован rutor или вдруг Вы не можете на него зайти, то Вы без труда сможете скачать бесплатно и без рекламы последние новинки кино, игр, сериалов и прочего у нас, на Rutor.in. Не нужно использовать прокси, чтобы зайти на рутор, достаточно воспользоваться нашим ресурсом. Все новые фильмы, игры, сериалы, книги и музыка за 2013 и 2014 годы через торрент бесплатно. Скачивайте фильмы в хорошем качестве, игры для пк, xbox, playstation без регистрации. У нас вы найдете новые Зарубежные сериалы и Русские сериалы 2013, 2014, 2015 годов. Оставайтесь с нами, качайте любимые фильмы, игры, сериалы, книги и музыку.