img image001 image001 image001 image001 image001 image001 image001 image001 image001 image001 image001 image001 image001 image001 image001

Planets Sun Sun Sun
Статистика раздачи
Автор: Nickolas3434 | Размер: 4.8 ГБ | Добавлен: 09 апр 2015
Раздают: 419    Качают: 16
Скачать торрент
Скачать торрент
Описание торрента

СообщениеДобавлено: 09 апр 2015 

Информация о фильме
Название: Воспоминания о Марни / Вспоминая Марни
Оригинальное название: Omoide no Marnie / When Marnie Was There / 思い出のマーニー
Страна: Япония
Год выхода: 2014
Жанр: приключения
Режиссер: Ёнэбаяси Хиромаса / Yonebayashi Hiromasa / 米林宏昌
Автор оригинала: Джоан Робинсон / Joan G. Robinson
О фильме: Двенадцатилетняя Анна — замкнутая и необщительная девочка. У неё нет друзей, и единственная отдушина — это рисование. Из-за слабого здоровья Анну отправляют на лето в небольшой городок в Хоккайдо. Там она встречает Марни — девочку, живущую в большом богатом доме на отмели. Постепенно они становятся хорошими подругами.
Эта дружба помогает Анне примириться с собой и окружающим миром. Но кто же такая Марни?
Фильм снят по мотивам одноимённой книги английской писательницы Джоан Дж. Робинсон.

Студия:
Продолжительность: полнометражный фильм, 01:42:41
Перевод: Любительский (двухголосый)
Озвучка: Emeri & Shoker
Субтитры: русские, полные (Zottig, Алекс Миф)
Хардсаб: отсутствует
Перевод на русский: Zottig
Редактура: Алекс Миф
Файл
Качество: BDRip [loster01]
Формат: MKV
Видео: 1280 x 720 (16:9) at 23.976 fps, AVC (x264), High@L3.1, 5413 Kbps avg, 0.245 bit/pixel, 8 bit
Аудио #1: RUS - 48 kHz, AC3, 5 ch, 640 kbps
Аудио #2: JAP - 48 kHz, AC3, 5 ch, 640 kbps
Релиз от:
Общее
Полное имя : Omoide.no.Marnie.rus.jap.sub.720.BDRip.DD5.0.le-production.mkv
Формат : Matroska
Размер файла : 4,80 Гбайт
Продолжительность : 1 ч. 42 м.
Общий поток : 6696 Кбит/сек
Название фильма : LE-Production
Дата кодирования : UTC 2015-04-03 19:28:16
Программа кодирования : mkvmerge v7.8.0 ('River Man') 64bit built on Mar 27 2015 16:31:37
Библиотека кодирования : libebml v1.3.1 + libmatroska v1.4.2
Видео
Идентификатор : 1
Формат : AVC
Формат/Информация : Advanced Video Codec
Профиль формата : High@L3.1
Параметр CABAC формата : Да
Параметр ReFrames формата : 4 кадры
Идентификатор кодека : V_MPEG4/ISO/AVC
Продолжительность : 1 ч. 42 м.
Битрейт : 5413 Кбит/сек
Ширина : 1280 пикс.
Высота : 720 пикс.
Соотношение сторон : 16:9
Частота кадров : 23,976 кадр/сек
Цветовое пространство : YUV
Подвыборка цветности : 4:2:0
Битовая глубина : 8 бит
Тип развёртки : Прогрессивная
Бит/(Пиксели*Кадры) : 0.245
Размер потока : 3,79 Гбайт (79%)
Заголовок : LE-Production
Библиотека кодирования : x264 core 130 r2273 b3065e6
Настройки программы : cabac=1 / ref=1 / deblock=1:-1:-1 / analyse=0x3:0x3 / me=dia / subme=1 / psy=1 / psy_rd=1.00:0.10 / mixed_ref=0 / me_range=16 / chroma_me=1 / trellis=0 / 8x8dct=1 / cqm=0 / deadzone=21,11 / fast_pskip=1 / chroma_qp_offset=0 / threads=12 / lookahead_threads=2 / sliced_threads=0 / nr=0 / decimate=1 / interlaced=0 / bluray_compat=0 / constrained_intra=0 / bframes=3 / b_pyramid=2 / b_adapt=1 / b_bias=0 / direct=3 / weightb=1 / open_gop=0 / weightp=1 / keyint=250 / keyint_min=23 / scenecut=40 / intra_refresh=0 / rc=2pass / mbtree=0 / bitrate=5413 / ratetol=1.0 / qcomp=0.60 / qpmin=0 / qpmax=69 / qpstep=4 / cplxblur=20.0 / qblur=0.5 / ip_ratio=1.40 / pb_ratio=1.30 / aq=1:1.00
Язык : Russian
Аудио #1
Идентификатор : 2
Формат : AC-3
Формат/Информация : Audio Coding 3
Расширение режима : CM (complete main)
Идентификатор кодека : A_AC3
Продолжительность : 1 ч. 42 м.
Вид битрейта : Постоянный
Битрейт : 640 Кбит/сек
Канал(ы) : 5 канала(ов)
Расположение каналов : Front: L C R, Side: L R
Частота : 48,0 КГц
Битовая глубина : 16 бит
Метод сжатия : С потерями
Размер потока : 470 Мбайт (10%)
Заголовок : Emeri & Shoker
Язык : Russian
Аудио #2
Идентификатор : 3
Формат : AC-3
Формат/Информация : Audio Coding 3
Расширение режима : CM (complete main)
Идентификатор кодека : A_AC3
Продолжительность : 1 ч. 42 м.
Вид битрейта : Постоянный
Битрейт : 640 Кбит/сек
Канал(ы) : 5 канала(ов)
Расположение каналов : Front: L C R, Side: L R
Частота : 48,0 КГц
Битовая глубина : 16 бит
Метод сжатия : С потерями
Размер потока : 470 Мбайт (10%)
Язык : Japanese
Текст
Идентификатор : 4
Формат : ASS
Идентификатор кодека : S_TEXT/ASS
Идентификатор кодека/Информация : Advanced Sub Station Alpha
Метод сжатия : Без потерь
Заголовок : Zottig, Алекс Миф
Язык : Russian





   Похожие торренты   Торрент   Размер 
В этой теме нет новых непрочитанных сообщений. Вспоминая Марни / Omoide no Marnie / When Marnie Was There (2014) BDRip от Stranik 2.0 | L1

48 | 40

1.94 ГБ

В этой теме нет новых непрочитанных сообщений. Вспоминая Марни / Omoide no Marnie / When Marnie Was There (2014) BDRip | L1

169 | 30

2.75 ГБ

В этой теме нет новых непрочитанных сообщений. Воспоминания о Марни / Omoide no Marnie (2014) BDRip от rs.bandito | L2, L1

273 | 28

2.44 ГБ

В этой теме нет новых непрочитанных сообщений. Вспоминая Марни / Omoide no Marnie (2014) TVRip | Трейлер

33 | 7

5.28 МБ

В этой теме нет новых непрочитанных сообщений. Воспоминания Марни / Omoide no Marnie (2014) HDRip от KinoXa | КПК

51 | 4

547.48 МБ

В этой теме нет новых непрочитанных сообщений. Марни / Marnie (1964) HDTVRip 720p

26 | 5

4.55 ГБ

В этой теме нет новых непрочитанных сообщений. Марни / Marnie (1964) BDRip от HQCLUB

100 | 11

2.18 ГБ




Вы не можете начинать темы
Вы не можете отвечать на сообщения
Вы не можете редактировать свои сообщения
Вы не можете удалять свои сообщения
Вы не можете добавлять вложения

Перейти:  
Для Мосгорсуда, Роскомнадзора и рекламодателей: mosgorsud-torrent[собачка]yandex.ru
 Вход
ppkBB3cker v.2 © 2008-2014 @ PPK
[ Time : 0.024s | 15 Queries | GZIP : Off ]

Торрент трекер RUTOR.IN, Не можете зайти на rutor.org? Какой новый адрес рутор? Какое зеркало рутор? Не работает rutor.org и зеркала? Тогда наш торрент специально для вас. Rutor.in неофициальное зеркало rutor. В случае если у Вас заблокирован rutor или вдруг Вы не можете на него зайти, то Вы без труда сможете скачать бесплатно и без рекламы последние новинки кино, игр, сериалов и прочего у нас, на Rutor.in. Не нужно использовать прокси, чтобы зайти на рутор, достаточно воспользоваться нашим ресурсом. Все новые фильмы, игры, сериалы, книги и музыка за 2013 и 2014 годы через торрент бесплатно. Скачивайте фильмы в хорошем качестве, игры для пк, xbox, playstation без регистрации. У нас вы найдете новые Зарубежные сериалы и Русские сериалы 2013, 2014, 2015 годов. Оставайтесь с нами, качайте любимые фильмы, игры, сериалы, книги и музыку.