img image001 image001 image001 image001 image001 image001 image001 image001 image001 image001 image001 image001 image001 image001 image001

Planets Sun Sun Sun
Статистика раздачи
Автор: Nickolas3434 | Размер: 1.94 ГБ | Добавлен: 09 апр 2015
Раздают: 48    Качают: 40
Скачать торрент
Скачать торрент
Описание торрента

СообщениеДобавлено: 09 апр 2015 


Информация о фильме
Название : Вспоминая Марни
Оригинальное название : Omoide no Marnie / When Marnie Was There / 思い出のマーニー
Год выхода : 2014
Жанр : Приключения, драма, мистика
Режиссер : Хиромаса Ёнэбаяси

Описание : Двенадцатилетняя Анна — замкнутая и необщительная девочка. У неё нет друзей, и единственная отдушина — это рисование. Из-за слабого здоровья Анну отправляют на лето в небольшой городок в Хоккайдо. Там она встречает Марни — девочку, живущую в большом богатом доме на отмели. Постепенно они становятся хорошими подругами. Эта дружба помогает Анне примириться с собой и окружающим миром. Зрителю предстоит узнать, кем же на самом деле была Марни, и какую роль она играла в судьбе Анны.
Страна : Япония
Производство : Studio Ghibli
Продолжительность : 01:42:41
Перевод : Любительский (одноголосый, закадровый)
Субтитры: От группы Студия GHIBLI: Хаяо Миядзаки, Исао Такахата
Перевод: Алиса Томина, редактура: Алиса Ку и Масатака Хикита
Субтитры: От Timecraft
Перевод: Zottig, редактура: AleX_MytH
Озвучка:
Перевод: AOS
- одноголосая закадровая: (муж.) FassaD
Автор рипа и релиза :
Файл
Формат видео : AVI
Качество : BDRip (Исходник - BDRemux [Omoide.no.Marnie.2014.BDRemux.1080p])
Видео: XviD, 720x384 (1.85:1), 8 bit, 1800 Кбит/с, 23.976 fps
Аудио 1: Русский, AC3, 448 Кбит/с, 48.0 Hz, 6 ch (в составе контейнера)
Аудио 2: Японский, AC3, 448 Кбит/с, 48.0 Hz, 5 ch (в составе контейнера)
Субтитры 1(srt): Русские [Студия Гибли] (внешним файлом)
Субтитры 2(srt): Русские [Таймкрафт] (внешним файлом)




General
Complete name : E:/Torrent_2/Omoide no Marnie (2014, XviD BDRip, RUS JAP+SUB) [Stranik 2.0]/Omoide no Marnie (2014, XviD BDRip, RUS JAP+SUB) [Stranik 2.0].avi
Format : AVI
Format/Info : Audio Video Interleave
File size : 1.94 GiB
Duration : 1h 42mn
Overall bit rate : 2 710 Kbps
Writing application : VirtualDubMod 1.5.10.3 (build 2550/release)
Writing library : VirtualDubMod build 2550/release
Video #0
ID : 0
Format : MPEG-4 Visual
Format profile : Advanced Simple@L5
Format settings, BVOP : 2
Format settings, QPel : No
Format settings, GMC : No warppoints
Format settings, Matrix : Default (H.263)
Codec ID : XVID
Codec ID/Hint : XviD
Duration : 1h 42mn
Bit rate : 1 800 Kbps
Width : 720 pixels
Height : 384 pixels
Display aspect ratio : 1.85:1
Frame rate : 23.976 fps
Color space : YUV
Chroma subsampling : 4:2:0
Bit depth : 8 bits
Scan type : Progressive
Compression mode : Lossy
Bits/(Pixel*Frame) : 0.272
Stream size : 1.29 GiB (66%)
Writing library : XviD 1.2.1 (UTC 2008-12-04)
Audio #1
ID : 1
Format : AC-3
Format/Info : Audio Coding 3
Mode extension : CM (complete main)
Format settings, Endianness : Big
Codec ID : 2000
Duration : 1h 42mn
Bit rate mode : Constant
Bit rate : 448 Kbps
Channel(s) : 6 channels
Channel positions : Front: L C R, Side: L R, LFE
Sampling rate : 48.0 KHz
Bit depth : 16 bits
Compression mode : Lossy
Stream size : 329 MiB (17%)
Alignment : Split accross interleaves
Interleave, duration : 42 ms (1.00 video frame)
Interleave, preload duration : 500 ms
Audio #2
ID : 2
Format : AC-3
Format/Info : Audio Coding 3
Mode extension : CM (complete main)
Format settings, Endianness : Big
Codec ID : 2000
Duration : 1h 42mn
Bit rate mode : Constant
Bit rate : 448 Kbps
Channel(s) : 6 channels
Channel(s)_Original : 5 channels
Channel positions : Front: L C R, Side: L R
Sampling rate : 48.0 KHz
Bit depth : 16 bits
Compression mode : Lossy
Stream size : 329 MiB (17%)
Alignment : Split accross interleaves
Interleave, duration : 42 ms (1.00 video frame)
Interleave, preload duration : 500 ms

Моя максимальная скорость отдачи 100КБ/c





   Похожие торренты   Торрент   Размер 
В этой теме нет новых непрочитанных сообщений. Воспоминания о Марни / Вспоминая Марни / Omoide no Marnie / When Marnie Was There [Movie] (2014) BDRip 720p | LE-Production

419 | 16

4.8 ГБ

В этой теме нет новых непрочитанных сообщений. Вспоминая Марни / Omoide no Marnie / When Marnie Was There (2014) BDRip | L1

169 | 30

2.75 ГБ

В этой теме нет новых непрочитанных сообщений. Вспоминая Марни / Omoide no Marnie (2014) TVRip | Трейлер

33 | 7

5.28 МБ

В этой теме нет новых непрочитанных сообщений. Воспоминания о Марни / Omoide no Marnie (2014) BDRip от rs.bandito | L2, L1

273 | 28

2.44 ГБ

В этой теме нет новых непрочитанных сообщений. Воспоминания Марни / Omoide no Marnie (2014) HDRip от KinoXa | КПК

51 | 4

547.48 МБ

В этой теме нет новых непрочитанных сообщений. Марни / Marnie (1964) BDRip от HQCLUB

100 | 11

2.18 ГБ

В этой теме нет новых непрочитанных сообщений. Марни / Marnie (1964) BDRip-AVC от NovaLan

5 | 2

3.37 ГБ




Вы не можете начинать темы
Вы не можете отвечать на сообщения
Вы не можете редактировать свои сообщения
Вы не можете удалять свои сообщения
Вы не можете добавлять вложения

Перейти:  
Для Мосгорсуда, Роскомнадзора и рекламодателей: mosgorsud-torrent[собачка]yandex.ru
 Вход
ppkBB3cker v.2 © 2008-2014 @ PPK
[ Time : 0.352s | 15 Queries | GZIP : On ]

Торрент трекер RUTOR.IN, Не можете зайти на rutor.org? Какой новый адрес рутор? Какое зеркало рутор? Не работает rutor.org и зеркала? Тогда наш торрент специально для вас. Rutor.in неофициальное зеркало rutor. В случае если у Вас заблокирован rutor или вдруг Вы не можете на него зайти, то Вы без труда сможете скачать бесплатно и без рекламы последние новинки кино, игр, сериалов и прочего у нас, на Rutor.in. Не нужно использовать прокси, чтобы зайти на рутор, достаточно воспользоваться нашим ресурсом. Все новые фильмы, игры, сериалы, книги и музыка за 2013 и 2014 годы через торрент бесплатно. Скачивайте фильмы в хорошем качестве, игры для пк, xbox, playstation без регистрации. У нас вы найдете новые Зарубежные сериалы и Русские сериалы 2013, 2014, 2015 годов. Оставайтесь с нами, качайте любимые фильмы, игры, сериалы, книги и музыку.