img image001 image001 image001 image001 image001 image001 image001 image001 image001 image001 image001 image001 image001 image001 image001

Planets Sun Sun Sun
Статистика раздачи
Автор: Nickolas3434 | Размер: 2.44 ГБ | Добавлен: 12 апр 2015
Раздают: 273    Качают: 28
Скачать торрент
Скачать торрент
Описание торрента

СообщениеДобавлено: 12 апр 2015 

Информация о фильме
Название: Воспоминания о Марни / Вспоминая Марни / Воспоминания Марни
Оригинальное название: Omoide no Marnie / When Marnie Was There / 思い出のマーニー
Страна: Япония
Год выхода: 2014
Жанр: приключения
Режиссер: Ёнэбаяси Хиромаса / Yonebayashi Hiromasa / 米林宏昌
Автор оригинала: Джоан Робинсон / Joan G. Robinson
О фильме: Двенадцатилетняя Анна — замкнутая и необщительная девочка. У неё нет друзей, и единственная отдушина — это рисование. Из-за слабого здоровья Анну отправляют на лето в небольшой городок в Хоккайдо. Там она встречает Марни — девочку, живущую в большом богатом доме на отмели. Постепенно они становятся хорошими подругами.
Эта дружба помогает Анне примириться с собой и окружающим миром. Но кто же такая Марни?
Фильм снят по мотивам одноимённой книги английской писательницы Джоан Дж. Робинсон.

Студия:
Продолжительность: полнометражный фильм, 01:42:41
Перевод: Любительский (двухголосый) - LE-Production - Emeri & Shoker
Любительский (одноголосый) - AOS - FassaD
Субтитры: русские, *srt - Timecraft (перевод: Zottig, редактура: AleX_MytH)
русские, *srt - Студия GHIBLI: Хаяо Миядзаки, Исао Такахата (перевод: Алиса Томина, редактура: Алиса Ку и Масатака Хикита)
Хардсаб: отсутствует
Файл
Качество: BDRip [by rs.bandito] (Исходник - BDRemux)
Формат: AVI
Видео: 720 x 384 (1.88:1), 23.976 fps, XviD build 73 ~2045 kbps avg, 0.308 bit/pixel
Аудио #1: Rus - 48 kHz, AC3 Dolby Digital, 3/2 (L,C,R,l,r) ch, ~448 kbps | LE-Production
Аудио #2: Jap - 48 kHz, AC3 Dolby Digital, 3/2 (L,C,R,l,r) ch, ~448 kbps | Оригинал
Аудио #3: Rus - 48 kHz, AC3 Dolby Digital, 3/2 (L,C,R,l,r) + LFE ch, ~448 kbps | FassaD (внешним файлом)
Автор рипа:
Общее
Полное имя : Omoide no Marnie / Omoide_no_Marnie_BDRip.avi
Формат : AVI
Формат/Информация : Audio Video Interleave
Профиль формата : OpenDML
Размер файла : 2,12 Гбайт
Продолжительность : 1 ч. 42 м.
Общий поток : 2959 Кбит/сек
Название фильма : Omoide no Marnie [ripped by domin8]
Программа кодирования : VirtualDubMod 1.5.10.3 | www.virtualdub-fr.org || (build 2550/release)
Видео
Идентификатор : 0
Формат : MPEG-4 Visual
Профиль формата : Advanced Simple@L5
Параметр BVOP формата : 1
Параметр QPel формата : Нет
Параметр GMC формата : Без точки перехода
Параметр матрицы формата : Выборочная
Идентификатор кодека : XVID
Идентификатор кодека/Подсказка : XviD
Продолжительность : 1 ч. 42 м.
Битрейт : 2045 Кбит/сек
Ширина : 720 пикс.
Высота : 384 пикс.
Соотношение сторон : 1,875
Частота кадров : 23,976 кадр/сек
Цветовое пространство : YUV
Подвыборка цветности : 4:2:0
Битовая глубина : 8 бит
Тип развёртки : Прогрессивная
Метод сжатия : С потерями
Бит/(Пиксели*Кадры) : 0.308
Размер потока : 1,47 Гбайт (69%)
Библиотека кодирования : XviD 73
Аудио #1
Идентификатор : 1
Формат : AC-3
Формат/Информация : Audio Coding 3
Расширение режима : CM (complete main)
Идентификатор кодека : 2000
Продолжительность : 1 ч. 42 м.
Вид битрейта : Постоянный
Битрейт : 448 Кбит/сек
Канал(ы) : 5 канала(ов)
Расположение каналов : Front: L C R, Side: L R
Частота : 48,0 КГц
Битовая глубина : 16 бит
Метод сжатия : С потерями
Размер потока : 329 Мбайт (15%)
Выравнивание : Разделение по промежуткам
Продолжительность промежутка : 42 мс. (1,00 видеокадр)
Время предзагрузки промежутка : 500 ms
Заголовок : Russian
Аудио #2
Идентификатор : 2
Формат : AC-3
Формат/Информация : Audio Coding 3
Расширение режима : CM (complete main)
Идентификатор кодека : 2000
Продолжительность : 1 ч. 42 м.
Вид битрейта : Постоянный
Битрейт : 448 Кбит/сек
Канал(ы) : 5 канала(ов)
Расположение каналов : Front: L C R, Side: L R
Частота : 48,0 КГц
Битовая глубина : 16 бит
Метод сжатия : С потерями
Размер потока : 329 Мбайт (15%)
Выравнивание : Разделение по промежуткам
Продолжительность промежутка : 42 мс. (1,00 видеокадр)
Время предзагрузки промежутка : 500 ms
Заголовок : Japanese





   Похожие торренты   Торрент   Размер 
В этой теме нет новых непрочитанных сообщений. Воспоминания о Марни / Вспоминая Марни / Omoide no Marnie / When Marnie Was There [Movie] (2014) BDRip 720p | LE-Production

419 | 16

4.8 ГБ

В этой теме нет новых непрочитанных сообщений. Воспоминания Марни / Omoide no Marnie (2014) HDRip от KinoXa | КПК

51 | 4

547.48 МБ

В этой теме нет новых непрочитанных сообщений. Вспоминая Марни / Omoide no Marnie / When Marnie Was There (2014) BDRip от Stranik 2.0 | L1

48 | 40

1.94 ГБ

В этой теме нет новых непрочитанных сообщений. Вспоминая Марни / Omoide no Marnie / When Marnie Was There (2014) BDRip | L1

169 | 30

2.75 ГБ

В этой теме нет новых непрочитанных сообщений. Вспоминая Марни / Omoide no Marnie (2014) TVRip | Трейлер

33 | 7

5.28 МБ

В этой теме нет новых непрочитанных сообщений. Марни / Marnie (1964) BDRip от HQCLUB

100 | 11

2.18 ГБ

В этой теме нет новых непрочитанных сообщений. Марни / Marnie (1964) BDRip от MediaClub | КПК

56 | 11

591.81 МБ




Вы не можете начинать темы
Вы не можете отвечать на сообщения
Вы не можете редактировать свои сообщения
Вы не можете удалять свои сообщения
Вы не можете добавлять вложения

Перейти:  
Для Мосгорсуда, Роскомнадзора и рекламодателей: mosgorsud-torrent[собачка]yandex.ru
 Вход
ppkBB3cker v.2 © 2008-2014 @ PPK
[ Time : 0.029s | 15 Queries | GZIP : Off ]

Торрент трекер RUTOR.IN, Не можете зайти на rutor.org? Какой новый адрес рутор? Какое зеркало рутор? Не работает rutor.org и зеркала? Тогда наш торрент специально для вас. Rutor.in неофициальное зеркало rutor. В случае если у Вас заблокирован rutor или вдруг Вы не можете на него зайти, то Вы без труда сможете скачать бесплатно и без рекламы последние новинки кино, игр, сериалов и прочего у нас, на Rutor.in. Не нужно использовать прокси, чтобы зайти на рутор, достаточно воспользоваться нашим ресурсом. Все новые фильмы, игры, сериалы, книги и музыка за 2013 и 2014 годы через торрент бесплатно. Скачивайте фильмы в хорошем качестве, игры для пк, xbox, playstation без регистрации. У нас вы найдете новые Зарубежные сериалы и Русские сериалы 2013, 2014, 2015 годов. Оставайтесь с нами, качайте любимые фильмы, игры, сериалы, книги и музыку.