img image001 image001 image001 image001 image001 image001 image001 image001 image001 image001 image001 image001 image001 image001 image001

Planets Sun Sun Sun
Статистика раздачи
Автор: Nickolas3434 | Размер: 388.51 МБ | Добавлен: 22 апр 2015
Раздают: 17    Качают: 1
Скачать торрент
Скачать торрент
Описание торрента

СообщениеДобавлено: 22 апр 2015 


Страна: Япония
Год выпуска: 2013 г.
Жанр: романтика, сёдзё
Тип: OVA
Продолжительность: OVA (2 эп.), 17 мин.
Режиссер: Икэямада Го
Описание:
Мегуми и Мицуру. Они - близнецы. Она - отаку. Он - спортсмен. Он популярен среди девчонок, а она даже с парнями нормально разговаривать не пробовала! У Мицуру на носу экзамены по истории, в которых так хороша Мегуми. Переодевшись в друг друга, им приходится вступить на неизвестную им территорию, ему - в академию для девочек и ей - в академию для мальчиков! Что же их ждет? Большая любовь или крупные неприятности?
Доп. информация:

Релиз GSGroup
Снято по манге: Kobayashi ga Kawaisugite Tsurai!!
Качество: DVDRip
Тип релиза: Без хардсаба
Формат видео: MKV
Релиз/Автор рипа: na
Совместимость с бытовыми плеерами: Нет
Видео: AVC x264, 848x480, 941 Kbps, 23.976 fps, 8 bits.
Аудио 1: AC-3, 48.0 KHz, 192 Kbps, 2 channels Язык Русский (в составе контейнера) ; Озвучка: женская одноголосая: Persona99
Аудио 2: AC-3, 48.0 KHz, 384 Kbps, 2 channels Язык Японский
Субтитры: ASS встроенные в составе контейнера Язык субтитров русский ; Перевод: Дмитрий Седоченко
Код:
General
Unique ID                   : 250481440066103905281174287546412740922 (0xBC70F878D36451359C1EDEA3F418B13A)
Complete name              Kobayashi ga Kawaisugite Tsurai!! OVA1 Kobayashi ga Kawaisugite Tsurai!!(DVD 848x480p x264 AC3)[Persona99].rus.jpn.mkv
Format                      : Matroska
Format version              : Version 2
File size                   : 204 MiB
Duration                    : 16mn 17s
Overall bit rate            : 1 750 Kbps
Encoded date                : UTC 2015-04-20 07:35:53
Writing application         : mkvmerge v4.0.0 ('The Stars were mine') built on Jun  6 2010 16:18:42
Writing library             : libebml v1.0.0 + libmatroska v1.0.0
Video
ID                          : 1
Format                      : AVC
Format/Info                 : Advanced Video Codec
Format profile              : High@L4.1
Format settings, CABAC      : Yes
Format settings, ReFrames   : 5 frames
Codec ID                    : V_MPEG4/ISO/AVC
Duration                    : 16mn 17s
Bit rate                    : 1 139 Kbps
Width                       : 848 pixels
Height                      : 480 pixels
Display aspect ratio        : 16:9
Frame rate mode             : Constant
Frame rate                  : 23.976 fps
Color space                 : YUV
Chroma subsampling          : 4:2:0
Bit depth                   : 8 bits
Scan type                   : Progressive
Bits/(Pixel*Frame)          : 0.117
Stream size                 : 133 MiB (65%)
Writing library             : x264 core 142 r2389+41 02cb608 tMod [8-bit@all X86]
Encoding settings           : cabac=1 / ref=5 / deblock=1:1:0 / analyse=0x3:0x133 / me=umh / subme=9 / psy=1 / fade_compensate=0.00 / psy_rd=0.60:0.00 / mixed_ref=1 / me_range=32 / chroma_me=1 / trellis=2 / 8x8dct=1 / cqm=0 / deadzone=21,11 / fast_pskip=0 / chroma_qp_offset=-4 / threads=4 / lookahead_threads=1 / sliced_threads=0 / nr=0 / decimate=1 / interlaced=0 / bluray_compat=0 / constrained_intra=0 / fgo=0 / bframes=8 / b_pyramid=2 / b_adapt=2 / b_bias=0 / direct=3 / weightb=1 / open_gop=0 / weightp=2 / keyint=240 / keyint_min=23 / scenecut=40 / intra_refresh=0 / rc_lookahead=40 / rc=crf / mbtree=0 / crf=15.0000 / qcomp=0.60 / qpmin=10:10:10 / qpmax=42:42:42 / qpstep=4 / vbv_maxrate=50000 / vbv_bufsize=50000 / crf_max=0.0 / nal_hrd=none / filler=0 / ip_ratio=1.40 / pb_ratio=1.30 / aq=1:0.90 / aq-sensitivity=10.00 / aq-factor=1.00:1.00:1.00 / aq2=0 / aq3=0
Default                     : No
Forced                      : No
Audio #1
ID                          : 2
Format                      : AC-3
Format/Info                 : Audio Coding 3
Mode extension              : CM (complete main)
Format settings, Endianness : Big
Codec ID                    : A_AC3
Duration                    : 16mn 17s
Bit rate mode               : Constant
Bit rate                    : 192 Kbps
Channel(s)                  : 2 channels
Channel positions           : Front: L R
Sampling rate               : 48.0 KHz
Bit depth                   : 16 bits
Compression mode            : Lossy
Stream size                 : 22.4 MiB (11%)
Title                       : Persona99
Language                    : Russian
Default                     : Yes
Forced                      : No
Audio #2
ID                          : 3
Format                      : AC-3
Format/Info                 : Audio Coding 3
Mode extension              : CM (complete main)
Format settings, Endianness : Big
Codec ID                    : A_AC3
Duration                    : 16mn 17s
Bit rate mode               : Constant
Bit rate                    : 384 Kbps
Channel(s)                  : 2 channels
Channel positions           : Front: L R
Sampling rate               : 48.0 KHz
Bit depth                   : 16 bits
Compression mode            : Lossy
Stream size                 : 44.8 MiB (22%)
Language                    : Japanese
Default                     : No
Forced                      : No
Text
ID                          : 4
Format                      : ASS
Codec ID                    : S_TEXT/ASS
Codec ID/Info               : Advanced Sub Station Alpha
Compression mode            : Lossless
Title                       : ass
Language                    : Russian
Default                     : No
Forced                      : No
 




   Похожие торренты   Торрент   Размер 
В этой теме нет новых непрочитанных сообщений. Кобаяши настолько милы, что аж душу теребит!! / Kobayashi ga Kawai Sugite Tsurai! [OVA ] (2013) WEBRip | AniFilm

41 | 8

44.56 МБ

В этой теме нет новых непрочитанных сообщений. Дракон-горничная Кобаяши-сан / Kobayashi-san Chi no Maid Dragon [01 из 12] (2017) HDTVRip 720p | SEKAI PROJECT

26 | 1

332.67 МБ

В этой теме нет новых непрочитанных сообщений. Дракон-горничная Кобаяши-сан / Kobayashi-san Chi no Maid Dragon [01-02 из 12] (2017) HDTVRip 720p | SEKAI PROJECT

0 | 0

665.41 МБ

В этой теме нет новых непрочитанных сообщений. Дракон-горничная Кобаяши-сан / Kobayashi-san Chi no Maid Dragon [01-02 из 12] (2017) HDTVRip 720p | SEKAI PROJECT

0 | 0

817.05 МБ

В этой теме нет новых непрочитанных сообщений. Фейри Тейл OVA / Fairy Tail [OVA] [01-06] (2011-2013) DVDRip AVC | Persona99

82 | 25

2.37 ГБ

В этой теме нет новых непрочитанных сообщений. Одному лишь Богу ведомый мир OVA-3 / Kami nomi zo Shiru Sekai: Magical Star Kanon 100% (2013) DVDRip / Persona99

8 | 2

363.19 МБ

В этой теме нет новых непрочитанных сообщений. Kaori Kobayashi - Precious (2011) MP3

0 | 1

146.94 МБ




Вы не можете начинать темы
Вы не можете отвечать на сообщения
Вы не можете редактировать свои сообщения
Вы не можете удалять свои сообщения
Вы не можете добавлять вложения

Перейти:  
Для Мосгорсуда, Роскомнадзора и рекламодателей: mosgorsud-torrent[собачка]yandex.ru
 Вход
ppkBB3cker v.2 © 2008-2014 @ PPK
[ Time : 0.046s | 14 Queries | GZIP : Off ]

Торрент трекер RUTOR.IN, Не можете зайти на rutor.org? Какой новый адрес рутор? Какое зеркало рутор? Не работает rutor.org и зеркала? Тогда наш торрент специально для вас. Rutor.in неофициальное зеркало rutor. В случае если у Вас заблокирован rutor или вдруг Вы не можете на него зайти, то Вы без труда сможете скачать бесплатно и без рекламы последние новинки кино, игр, сериалов и прочего у нас, на Rutor.in. Не нужно использовать прокси, чтобы зайти на рутор, достаточно воспользоваться нашим ресурсом. Все новые фильмы, игры, сериалы, книги и музыка за 2013 и 2014 годы через торрент бесплатно. Скачивайте фильмы в хорошем качестве, игры для пк, xbox, playstation без регистрации. У нас вы найдете новые Зарубежные сериалы и Русские сериалы 2013, 2014, 2015 годов. Оставайтесь с нами, качайте любимые фильмы, игры, сериалы, книги и музыку.