img image001 image001 image001 image001 image001 image001 image001 image001 image001 image001 image001 image001 image001 image001 image001

Planets Sun Sun Sun
Статистика раздачи
Автор: Nickolas3434 | Размер: 547.48 МБ | Добавлен: 22 апр 2015
Раздают: 51    Качают: 4
Скачать торрент
Скачать торрент
Описание торрента

СообщениеДобавлено: 22 апр 2015 


Год выпуска: 2014
Страна: Япония
Жанр: аниме, мультфильм, драма
Продолжительность: 01:42:41
Перевод: Любительский многоголосый
Режиссер: Хиромаса Ёнэбаяси
В ролях: Сара Такацуки, Касуми Аримура, Нанако Мацусима, Сусуму Тэрадзима, Тосиё Нэгиси, Риоко Морияма, Кадзуко Ёсиюки, Хитоми Куроки, Хироюки Морисаки
Описание: Двенадцатилетняя Анна — замкнутая и необщительная девочка. У неё нет друзей, и единственная отдушина — это рисование. Из-за слабого здоровья Анну отправляют на лето в небольшой городок в Хоккайдо. Там она встречает Марни — девочку, живущую в большом богатом доме на отмели. Постепенно они становятся хорошими подругами. Эта дружба помогает Анне примириться с собой и окружающим миром. Зрителю предстоит узнать, кем же на самом деле была Марни, и какую роль она играла в судьбе Анны.
Видео кодек: MPEG-4 AVC
Качество: HDRip
Параметры Видео: 640x344, 23.976 fps; ~609 kbps avg
Параметры Звука: 48.0 KHz, AAC, ~128.00 kbps avg, 2ch
Формат: mp4


General
Complete name : E:Vospominaniya_Marni.2014.L.HDRip.640x_KinoXa.mp4
Format : MPEG-4
Format profile : Base Media
Codec ID : isom
File size : 547 MiB
Duration : 1h 42mn
Overall bit rate mode : Variable
Overall bit rate : 745 Kbps
Movie name : Воспоминания Марни
Performer : Хиромаса Ёнэбаяси
Genre : Animation, Drama
ContentType : Short Film
Recorded date : 2014
Encoded date : UTC 2015-04-19 21:48:37
Tagged date : UTC 2015-04-20 15:27:05
Cover : Yes
ContentRating : mpaa|PG|200|
LongDeion : Двенадцатилетняя Анна — замкнутая и необщительная девочка. У неё нет друзей, и единственная отдушина — это рисование. Из-за слабого здоровья Анну отправляют на лето в небольшой городок в Хоккайдо. Там она встречает Марни — девочку, живущую в большом богатом доме на отмели. Постепенно они становятся хорошими подругами. Эта дружба помогает Анне примириться с собой и окружающим миром. Зрителю предстоит узнать, кем же на самом деле была Марни, и какую роль она играла в судьбе Анны.
Video
ID : 1
Format : AVC
Format/Info : Advanced Video Codec
Format profile : High@L3.0
Format settings, CABAC : Yes
Format settings, ReFrames : 5 frames
Codec ID : avc1
Codec ID/Info : Advanced Video Coding
Duration : 1h 42mn
Bit rate : 609 Kbps
Maximum bit rate : 4 984 Kbps
Width : 640 pixels
Height : 344 pixels
Display aspect ratio : 1.85:1
Frame rate mode : Constant
Frame rate : 23.976 fps
Color space : YUV
Chroma subsampling : 4:2:0
Bit depth : 8 bits
Scan type : Progressive
Bits/(Pixel*Frame) : 0.115
Stream size : 447 MiB (82%)
Writing library : x264 core 130 r2273 b3065e6
Encoding settings : cabac=1 / ref=5 / deblock=1:-1:-1 / analyse=0x3:0x133 / me=umh / subme=7 / psy=1 / psy_rd=1.00:0.00 / mixed_ref=1 / me_range=16 / chroma_me=1 / trellis=2 / 8x8dct=1 / cqm=0 / deadzone=21,11 / fast_pskip=0 / chroma_qp_offset=-2 / threads=3 / lookahead_threads=1 / sliced_threads=0 / nr=0 / decimate=1 / interlaced=0 / bluray_compat=0 / constrained_intra=0 / bframes=3 / b_pyramid=2 / b_adapt=2 / b_bias=0 / direct=3 / weightb=1 / open_gop=0 / weightp=2 / keyint=250 / keyint_min=23 / scenecut=40 / intra_refresh=0 / rc_lookahead=50 / rc=crf / mbtree=1 / crf=18.0 / qcomp=0.60 / qpmin=0 / qpmax=69 / qpstep=4 / ip_ratio=1.40 / aq=1:1.00
Encoded date : UTC 2015-04-19 21:48:37
Tagged date : UTC 2015-04-19 21:49:10
Audio
ID : 2
Format : AAC
Format/Info : Advanced Audio Codec
Format profile : LC
Codec ID : 40
Duration : 1h 42mn
Bit rate mode : Variable
Bit rate : 128 Kbps
Maximum bit rate : 201 Kbps
Channel count : 2 channels
Channel positions : Front: L R
Sampling rate : 48.0 KHz
Compression mode : Lossy
Delay relative to video : 83ms
Stream size : 93.9 MiB (17%)
Encoded date : UTC 2015-04-19 21:49:04
Tagged date : UTC 2015-04-19 21:49:10







   Похожие торренты   Торрент   Размер 
В этой теме нет новых непрочитанных сообщений. Воспоминания о Марни / Вспоминая Марни / Omoide no Marnie / When Marnie Was There [Movie] (2014) BDRip 720p | LE-Production

419 | 16

4.8 ГБ

В этой теме нет новых непрочитанных сообщений. Воспоминания о Марни / Omoide no Marnie (2014) BDRip от rs.bandito | L2, L1

273 | 28

2.44 ГБ

В этой теме нет новых непрочитанных сообщений. Вспоминая Марни / Omoide no Marnie / When Marnie Was There (2014) BDRip от Stranik 2.0 | L1

48 | 40

1.94 ГБ

В этой теме нет новых непрочитанных сообщений. Вспоминая Марни / Omoide no Marnie / When Marnie Was There (2014) BDRip | L1

169 | 30

2.75 ГБ

В этой теме нет новых непрочитанных сообщений. Вспоминая Марни / Omoide no Marnie (2014) TVRip | Трейлер

33 | 7

5.28 МБ

В этой теме нет новых непрочитанных сообщений. Марни / Marnie (1964) BDRip от HQCLUB

100 | 11

2.18 ГБ

В этой теме нет новых непрочитанных сообщений. Марни / Marnie (1964) HDTVRip 720p

26 | 5

4.55 ГБ




Вы не можете начинать темы
Вы не можете отвечать на сообщения
Вы не можете редактировать свои сообщения
Вы не можете удалять свои сообщения
Вы не можете добавлять вложения

Перейти:  
Для Мосгорсуда, Роскомнадзора и рекламодателей: mosgorsud-torrent[собачка]yandex.ru
 Вход
ppkBB3cker v.2 © 2008-2014 @ PPK
[ Time : 0.023s | 14 Queries | GZIP : On ]

Торрент трекер RUTOR.IN, Не можете зайти на rutor.org? Какой новый адрес рутор? Какое зеркало рутор? Не работает rutor.org и зеркала? Тогда наш торрент специально для вас. Rutor.in неофициальное зеркало rutor. В случае если у Вас заблокирован rutor или вдруг Вы не можете на него зайти, то Вы без труда сможете скачать бесплатно и без рекламы последние новинки кино, игр, сериалов и прочего у нас, на Rutor.in. Не нужно использовать прокси, чтобы зайти на рутор, достаточно воспользоваться нашим ресурсом. Все новые фильмы, игры, сериалы, книги и музыка за 2013 и 2014 годы через торрент бесплатно. Скачивайте фильмы в хорошем качестве, игры для пк, xbox, playstation без регистрации. У нас вы найдете новые Зарубежные сериалы и Русские сериалы 2013, 2014, 2015 годов. Оставайтесь с нами, качайте любимые фильмы, игры, сериалы, книги и музыку.