img image001 image001 image001 image001 image001 image001 image001 image001 image001 image001 image001 image001 image001 image001 image001

Planets Sun Sun Sun
Статистика раздачи
Автор: Nickolas3434 | Размер: 7.75 ГБ | Добавлен: 24 апр 2015
Раздают: 15    Качают: 5
Скачать торрент
Скачать торрент
Описание торрента

СообщениеДобавлено: 24 апр 2015 


Информация о фильме
    Русское название: Ещё вчера
    Оригинальное название: Only Yesterday / Omoide Poro-poro
    Год выхода: 1991
    Жанр: аниме, мультфильм, драма, мелодрама
    Режиссер: Исао Такахата
    Выпущено: Япония
    Продолжительность: 01:58:48
    Перевод: Многогоосый закадровый
    Роли озвучивали: Мики Имаи, Тоширо Янагиба, Ёко Хонна, Маюми Иидзука, Масахиро Ито, Чие Китагава, Ёсимаса Кондо, Юки Масуда, Юки Минова, Кацуо Такахаси


Сюжет фильма
    Во время отдыха Таеко неожиданно для себя обнаруживает, что вспоминает времена, когда она была маленькой и училась в школе в далеком 1966 году. Действие фильма постоянно скачет назад и вперед между двумя временными периодами с ностальгией и прекрасными горными пейзажами, в то время как Таеко расставляет по полочкам свои воспоминания и пытается принять трудное решение о своем будущем…


Файл
    Качество: BDRip 1080p (исходник Blu-ray Disc Remux)
    Видео: 1920x1038, 8964 Кбит/сек, 23,976 кадр/сек, AVC, x264, High@L4.1, 1.85:1, 0.188 Бит/[Пиксели*Кадры]
    Аудио 1: AC-3, 192 Кбит/сек, 2 канала(ов), 48,0 КГц - Многогоосый закадровый, RUSCICO / Русский
    Аудио 2: AC-3, 192 Кбит/сек, 2 канала(ов), 48,0 КГц - Оригинал / Японский
    Субтитры: Русские | Полные, Английские | Полные
    Форсированные субтитры: Нет
    Чаптеры (Главы): Есть



Автор Рипа: Сообщество:



Format : Matroska
Format version : Version 2
File size : 7.75 GiB
Duration : 1h 58mn
Overall bit rate : 9 343 Kbps
Movie name : Ещё вчера.(1991).BDRip.1080p.[envy]
Encoded date : UTC 2015-04-23 07:53:54
Writing application : mkvmerge v5.8.0 ('No Sleep / Pillow') built on Sep 2 2012 15:37:04
Writing library : libebml v1.2.3 + libmatroska v1.3.0
Video
ID : 1
Format : AVC
Format/Info : Advanced Video Codec
Format profile : High@L4.1
Format settings, CABAC : Yes
Format settings, ReFrames : 4 frames
Codec ID : V_MPEG4/ISO/AVC
Duration : 1h 58mn
Bit rate : 8 964 Kbps
Width : 1 920 pixels
Height : 1 038 pixels
Display aspect ratio : 1.85:1
Frame rate mode : Constant
Frame rate : 23.976 fps
Color space : YUV
Chroma subsampling : 4:2:0
Bit depth : 8 bits
Scan type : Progressive
Bits/(Pixel*Frame) : 0.188
Stream size : 7.28 GiB (94%)
Title : Ещё вчера.(1991).BDRip.1080p.[envy]
Writing library : x264 core 146 r2538 121396c
Encoding settings : cabac=1 / ref=4 / deblock=1:0:0 / analyse=0x3:0x133 / me=umh / subme=11 / psy=1 / psy_rd=1.00:0.00 / mixed_ref=1 / me_range=48 / chroma_me=1 / trellis=2 / 8x8dct=1 / cqm=0 / deadzone=21,11 / fast_pskip=0 / chroma_qp_offset=-2 / threads=12 / lookahead_threads=2 / sliced_threads=0 / nr=0 / decimate=1 / interlaced=0 / bluray_compat=0 / constrained_intra=0 / bframes=7 / b_pyramid=2 / b_adapt=2 / b_bias=0 / direct=3 / weightb=1 / open_gop=0 / weightp=2 / keyint=240 / keyint_min=23 / scenecut=40 / intra_refresh=0 / rc=2pass / mbtree=0 / bitrate=8964 / ratetol=2.0 / qcomp=0.60 / qpmin=0 / qpmax=69 / qpstep=4 / cplxblur=20.0 / qblur=0.5 / ip_ratio=1.40 / pb_ratio=1.30 / aq=2:1.00
Language : Japanese
Default : Yes
Forced : No
Audio #1
ID : 2
Format : AC-3
Format/Info : Audio Coding 3
Mode extension : CM (complete main)
Format settings, Endianness : Big
Codec ID : A_AC3
Duration : 1h 58mn
Bit rate mode : Constant
Bit rate : 192 Kbps
Channel(s) : 2 channels
Channel positions : Front: L R
Sampling rate : 48.0 KHz
Bit depth : 16 bits
Compression mode : Lossy
Stream size : 163 MiB (2%)
Title : MVO R5 RUSCICO
Language : Russian
Default : Yes
Forced : No
Audio #2
ID : 3
Format : AC-3
Format/Info : Audio Coding 3
Mode extension : CM (complete main)
Format settings, Endianness : Big
Codec ID : A_AC3
Duration : 1h 58mn
Bit rate mode : Constant
Bit rate : 192 Kbps
Channel(s) : 2 channels
Channel positions : Front: L R
Sampling rate : 48.0 KHz
Bit depth : 16 bits
Compression mode : Lossy
Stream size : 163 MiB (2%)
Title : Jpn
Language : Japanese
Default : No
Forced : No
Text #1
ID : 4
Format : UTF-8
Codec ID : S_TEXT/UTF8
Codec ID/Info : UTF-8 Plain Text
Title : Rus full
Language : Russian
Default : No
Forced : No
Text #2
ID : 5
Format : UTF-8
Codec ID : S_TEXT/UTF8
Codec ID/Info : UTF-8 Plain Text
Title : Eng full
Language : English
Default : No
Forced : No
Menu
00:00:00.000 : en:00:00:00.000
00:01:49.109 : en:00:01:49.109
00:08:43.273 : en:00:08:43.273
00:13:48.578 : en:00:13:48.578
00:19:18.574 : en:00:19:18.574
00:25:38.787 : en:00:25:38.787
00:30:35.333 : en:00:30:35.333
00:34:43.790 : en:00:34:43.790
00:39:20.566 : en:00:39:20.566
00:44:01.514 : en:00:44:01.514
00:50:26.023 : en:00:50:26.023
00:56:33.015 : en:00:56:33.015
00:59:57.886 : en:00:59:57.886
01:05:10.073 : en:01:05:10.073
01:11:22.111 : en:01:11:22.111
01:16:14.069 : en:01:16:14.069
01:21:21.251 : en:01:21:21.251
01:25:30.459 : en:01:25:30.459
01:30:19.664 : en:01:30:19.664
01:35:20.089 : en:01:35:20.089
01:39:56.157 : en:01:39:56.157
01:42:40.863 : en:01:42:40.863
01:49:47.456 : en:01:49:47.456
01:52:25.781 : en:01:52:25.781


#77



   Похожие торренты   Торрент   Размер 
В этой теме нет новых непрочитанных сообщений. Ещё вчера / Only Yesterday / Omohide poro poro (1991) BDRip от HQCLUB

39 | 4

2.18 ГБ

В этой теме нет новых непрочитанных сообщений. Ещё вчера / Сочащиеся воспоминания / Only Yesterday / Omohide Poro Poro (1991) DVDRip

3 | 2

1.37 ГБ

В этой теме нет новых непрочитанных сообщений. Ещё вчера / Only Yesterday / Omoide Poro-poro (1991) BDRip от Stranik 2.0 | P

15 | 9

1.46 ГБ

В этой теме нет новых непрочитанных сообщений. Напролом / The Hard Way (1991) BDRip 1080p от NNNB

38 | 2

11.53 ГБ

В этой теме нет новых непрочитанных сообщений. Привычка жениться / The Marrying Man (1991) BDRip 1080p от NNNB | P, A

144 | 42

7.95 ГБ

В этой теме нет новых непрочитанных сообщений. Мыс страха / Cape Fear (1991) BDRip 1080p от NNNB D,P,P2,A

59 | 8

11.54 ГБ

В этой теме нет новых непрочитанных сообщений. Горячие головы / Hot Shots! (1991) BDRip 1080p от NNNB | D, P, P2, A

182 | 28

7.74 ГБ




Вы не можете начинать темы
Вы не можете отвечать на сообщения
Вы не можете редактировать свои сообщения
Вы не можете удалять свои сообщения
Вы не можете добавлять вложения

Перейти:  
Для Мосгорсуда, Роскомнадзора и рекламодателей: mosgorsud-torrent[собачка]yandex.ru
 Вход
ppkBB3cker v.2 © 2008-2014 @ PPK
[ Time : 0.043s | 17 Queries | GZIP : On ]

Торрент трекер RUTOR.IN, Не можете зайти на rutor.org? Какой новый адрес рутор? Какое зеркало рутор? Не работает rutor.org и зеркала? Тогда наш торрент специально для вас. Rutor.in неофициальное зеркало rutor. В случае если у Вас заблокирован rutor или вдруг Вы не можете на него зайти, то Вы без труда сможете скачать бесплатно и без рекламы последние новинки кино, игр, сериалов и прочего у нас, на Rutor.in. Не нужно использовать прокси, чтобы зайти на рутор, достаточно воспользоваться нашим ресурсом. Все новые фильмы, игры, сериалы, книги и музыка за 2013 и 2014 годы через торрент бесплатно. Скачивайте фильмы в хорошем качестве, игры для пк, xbox, playstation без регистрации. У нас вы найдете новые Зарубежные сериалы и Русские сериалы 2013, 2014, 2015 годов. Оставайтесь с нами, качайте любимые фильмы, игры, сериалы, книги и музыку.