img image001 image001 image001 image001 image001 image001 image001 image001 image001 image001 image001 image001 image001 image001 image001

Planets Sun Sun Sun
Статистика раздачи
Автор: Nickolas3434 | Размер: 1.48 ГБ | Добавлен: 01 май 2015
Раздают: 33    Качают: 6
Скачать торрент
Скачать торрент
Описание торрента

СообщениеДобавлено: 01 май 2015 


Страна: Япония
Год выпуска: 2014 г.
Жанр: приключения, комедия
Тип: Special
Продолжительность: 1h 46mn
Режиссер: Наоюки Ито
Студия: TOEI ANIMATION
Описание:
После смерти Эйса Луффи принял непростое решение – распустить на два года свою команду, чтобы посвятить это время тренировкам, и продолжить путешествие, став сильнее духом и телом. Отправившись вместе с Рэйли на Русукаину, Луффи принялся учиться у него управлению Хаки, чтобы стать капитаном, который сможет не только повести своих накама хоть на край света, но и защитить их мечты. В лесах Русукаины Луффи проводил долгие тренировочные дни в попытках овладеть тремя видами Хаки. Ему пришлось сделать паузу в тренировках, когда в опасности оказалась Принцесса Змей Боа Хэнкок. Узнав о том, что она Шичибукай и поэтому должна в случае необходимости поддерживать Мировое Правительство, опасный преступник Бэрнди Ворлд, сбежавший из Импел Дауна после 30 лет в заточении, решил взять ее в плен и использовать в своих интересах. Захватив в заложницы ее сестер, Ворлд предъявил Боа Хэнкок ультиматум и вынудил ее последовать за ним, а Луффи, не способный сидеть сложа руки, когда его товарищи находятся в опасности, отправился с ней. Гигантский корабль Ворлда и его старые боевые товарищи готовят для них множество неприятных сюрпризов...
Доп. информация:
Релиз GSGroup

Качество: BDRip
Тип релиза: Без хардсаба
Формат видео: AVI
Совместимость с бытовыми плеерами: Да
Видео: XviD, 720x400, 1582 Kbps, 23.976 fps, 8 bits
Аудио 1: AC-3, 48.0 KHz, 192 Kbps, 2 channels Язык Русский (в составе контейнера) ; Озвучка: одноголосая женская Persona99
Аудио 2: AC-3, 48.0 KHz, 192 Kbps, 2 channels Язык Японский
Субтитры: внешние srt, ass Язык субтитров русский ; Перевод: One Piece ru
Код:
General
Complete name                            : One Piece 3D2Y - Ace no Shi wo Koete! Luffy Nakama Tono ChikaiOne Piece - 3D2Y (BDRip).avi
Format                                   : AVI
Format/Info                              : Audio Video Interleave
File size                                : 1.33 GiB
Duration                                 : 1h 46mn
Overall bit rate                         : 1 783 Kbps
Writing application                      : VirtualDubMod 1.5.10.2 (build 2540/release)
Writing library                          : VirtualDubMod build 2540/release
Video
ID                                       : 0
Format                                   : MPEG-4 Visual
Format profile                           : Advanced Simple@L5
Format settings, BVOP                    : 2
Format settings, QPel                    : No
Format settings, GMC                     : No warppoints
Format settings, Matrix                  : Default (H.263)
Codec ID                                 : XVID
Codec ID/Hint                            : XviD
Duration                                 : 1h 46mn
Bit rate                                 : 1 582 Kbps
Width                                    : 720 pixels
Height                                   : 400 pixels
Display aspect ratio                     : 16:9
Frame rate                               : 23.976 fps
Color space                              : YUV
Chroma subsampling                       : 4:2:0
Bit depth                                : 8 bits
Scan type                                : Progressive
Compression mode                         : Lossy
Bits/(Pixel*Frame)                       : 0.229
Stream size                              : 1.18 GiB (89%)
Writing library                          : XviD 1.2.1 (UTC 2008-12-04)
Audio
ID                                       : 1
Format                                   : AC-3
Format/Info                              : Audio Coding 3
Mode extension                           : CM (complete main)
Format settings, Endianness              : Big
Codec ID                                 : 2000
Duration                                 : 1h 46mn
Bit rate mode                            : Constant
Bit rate                                 : 192 Kbps
Channel(s)                               : 2 channels
Channel positions                        : Front: L R
Sampling rate                            : 48.0 KHz
Bit depth                                : 16 bits
Compression mode                         : Lossy
Stream size                              : 147 MiB (11%)
Alignment                                : Split accross interleaves
Interleave, duration                     : 42 ms (1.00 video frame)
Interleave, preload duration             : 500 ms
 




   Похожие торренты   Торрент   Размер 
В этой теме нет новых непрочитанных сообщений. Ван-Пис 3D2Y: Пережить смерть Эйса! / One Piece 3D2Y-Ace no Shi wo Koete! Luffy Nakama Tono Chikai [Special] (2014) BDRip 720 | L1

80 | 14

1.69 ГБ

В этой теме нет новых непрочитанных сообщений. Ван Пис: Остров Мечты / One Piece Film Z Special: Glorious Island [Special] [1 из 1] (2012) HDRip | Persona99

11 | 3

151.07 МБ

В этой теме нет новых непрочитанных сообщений. Ван Пис: Золотое Сердце / One piece: Heart of Gold [Special]

84 | 16

2.23 ГБ

В этой теме нет новых непрочитанных сообщений. Ван-Пис: Приключения в Небуландии / One Piece: Adventure of Nebulandia [Special] (2015) HDTVRip | L1

30 | 2

1.5 ГБ

В этой теме нет новых непрочитанных сообщений. Kelly Clarkson - Piece By Piece [Deluxe Edition](2015) FLAC

36 | 17

447.95 МБ

В этой теме нет новых непрочитанных сообщений. Когда плачут цикады: Клятва / Higurashi no naku koro ni: Chikai (2009) DVDRip

2 | 13

1.77 ГБ

В этой теме нет новых непрочитанных сообщений. Волчица и семеро друзей / Okami-san to Shichinin no Nakama-tachi [02] (2010) HDTVRip

0 | 1

346.71 МБ




Вы не можете начинать темы
Вы не можете отвечать на сообщения
Вы не можете редактировать свои сообщения
Вы не можете удалять свои сообщения
Вы не можете добавлять вложения

Перейти:  
Для Мосгорсуда, Роскомнадзора и рекламодателей: mosgorsud-torrent[собачка]yandex.ru
 Вход
ppkBB3cker v.2 © 2008-2014 @ PPK
[ Time : 0.076s | 14 Queries | GZIP : Off ]

Торрент трекер RUTOR.IN, Не можете зайти на rutor.org? Какой новый адрес рутор? Какое зеркало рутор? Не работает rutor.org и зеркала? Тогда наш торрент специально для вас. Rutor.in неофициальное зеркало rutor. В случае если у Вас заблокирован rutor или вдруг Вы не можете на него зайти, то Вы без труда сможете скачать бесплатно и без рекламы последние новинки кино, игр, сериалов и прочего у нас, на Rutor.in. Не нужно использовать прокси, чтобы зайти на рутор, достаточно воспользоваться нашим ресурсом. Все новые фильмы, игры, сериалы, книги и музыка за 2013 и 2014 годы через торрент бесплатно. Скачивайте фильмы в хорошем качестве, игры для пк, xbox, playstation без регистрации. У нас вы найдете новые Зарубежные сериалы и Русские сериалы 2013, 2014, 2015 годов. Оставайтесь с нами, качайте любимые фильмы, игры, сериалы, книги и музыку.