img image001 image001 image001 image001 image001 image001 image001 image001 image001 image001 image001 image001 image001 image001 image001

Planets Sun Sun Sun
Статистика раздачи
Автор: Nickolas3434 | Размер: 2.33 ГБ | Добавлен: 07 май 2015
Раздают: 11    Качают: 13
Скачать торрент
Скачать торрент
Описание торрента

СообщениеДобавлено: 07 май 2015 


Информация о фильме
Название: Фронт кровавой блокады
Оригинальное название: Kekkai Sensen / Blood Blockade Battlefront / 血界戦線
Страна: Япония
Год выхода: 2015
Жанр: приключения, фэнтези
Режиссер: Мацумото Риэ / Matsumoto Rie / 松本理恵
Автор оригинала: Найто Ясухиро / Nightow Yasuhiro / 内藤泰弘
О фильме: В небе над Нью-Йорком разверзлась дыра, ведущая в другое измерение. Разрыв ширился и накрыл весь город непробиваемым колпаком, заперев жителей вместе с пришедшими из той стороны созданиями. Годами эти существа и люди вынуждены жить бок о бок друг с другом, сосуществуя в сумасшедшем мире криминала, высоких технологий и сверхспособностей.
Сюжет крутится вокруг борющейся со «злом» организацией «Либра» и её необычных участниках, которые встали на защиту «Сферы», дабы не пустить монстров во внешний мир.

Студия:
Продолжительность: ТВ (12 эп.), 25 мин.
Перевод: Любительский (двухголосый)
Озвучка: loster01 & Emeri
Субтитры: отсутствуют
Полухардсаб: надписи, логотип
Перевод на русский: Emeri
Файл
Качество: HDTVRip [Leopard-Raws]
Формат: MP4
Видео: 1280 x 720 (16:9) at 23.976 fps, AVC (x264), High@L3.0, 2448 Kbps avg, 0.111 bit/pixel, 8 bit
Аудио: 48.0 kHz, AAC, 2 ch, 256 kbps avg
Релиз от:
Общее
Полное имя : Kekkai.Sensen.720p.HDTVRip.le-production / Kekkai.Sensen.S01E01.720p.HDTVRip.le-production.mp4
Формат : MPEG-4
Профиль формата : Base Media
Идентификатор кодека : isom
Размер файла : 476 Мбайт
Продолжительность : 24 м.
Общий поток : 2708 Кбит/сек
Дата кодирования : UTC 2015-04-08 19:14:47
Дата пометки : UTC 2015-04-08 19:14:47
Программа кодирования : Yamb 2.1.0.0 [http://yamb.unite-video.com]
Правообладатель : LE-Production
Видео
Идентификатор : 1
Формат : AVC
Формат/Информация : Advanced Video Codec
Профиль формата : High@L3.0
Параметр CABAC формата : Да
Параметр ReFrames формата : 4 кадры
Идентификатор кодека : avc1
Идентификатор кодека/Информация : Advanced Video Coding
Продолжительность : 24 м.
Вид битрейта : Переменный
Битрейт : 2448 Кбит/сек
Максимальный битрейт : 20,6 Мбит/сек
Ширина : 1280 пикс.
Высота : 720 пикс.
Соотношение сторон : 16:9
Режим частоты кадров : Постоянный
Частота кадров : 23,976 кадр/сек
Цветовое пространство : YUV
Подвыборка цветности : 4:2:0
Битовая глубина : 8 бит
Тип развёртки : Прогрессивная
Бит/(Пиксели*Кадры) : 0.111
Размер потока : 431 Мбайт (90%)
Библиотека кодирования : x264 core 130 r2273 b3065e6
Настройки программы : cabac=1 / ref=1 / deblock=1:1:1 / analyse=0x3:0x3 / me=dia / subme=1 / psy=1 / psy_rd=0.40:0.00 / mixed_ref=0 / me_range=16 / chroma_me=1 / trellis=0 / 8x8dct=1 / cqm=0 / deadzone=21,11 / fast_pskip=1 / chroma_qp_offset=0 / threads=12 / lookahead_threads=2 / sliced_threads=0 / nr=0 / decimate=1 / interlaced=0 / bluray_compat=0 / constrained_intra=0 / bframes=5 / b_pyramid=2 / b_adapt=1 / b_bias=0 / direct=1 / weightb=1 / open_gop=0 / weightp=1 / keyint=250 / keyint_min=23 / scenecut=40 / intra_refresh=0 / rc=crf / mbtree=0 / crf=20.0 / qcomp=0.60 / qpmin=0 / qpmax=69 / qpstep=4 / ip_ratio=1.40 / pb_ratio=1.30 / aq=1:0.60
Язык : Russian
Дата кодирования : UTC 2015-04-08 19:14:47
Дата пометки : UTC 2015-04-08 19:14:54
Аудио
Идентификатор : 2
Формат : AAC
Формат/Информация : Advanced Audio Codec
Профиль формата : LC
Идентификатор кодека : 40
Продолжительность : 24 м.
Вид битрейта : Переменный
Битрейт : 256 Кбит/сек
Максимальный битрейт : 263 Кбит/сек
Канал(ы) : 2 канала(ов)
Расположение каналов : Front: L R
Частота : 48,0 КГц
Метод сжатия : С потерями
Размер потока : 45,1 Мбайт (9%)
Язык : Russian
Дата кодирования : UTC 2015-04-08 19:14:53
Дата пометки : UTC 2015-04-08 19:14:54
01.The Secret Society of the Sealed City of Magic.





   Похожие торренты   Торрент   Размер 
В этой теме нет новых непрочитанных сообщений. Фронт кровавой блокады / Kekkai Sensen / Blood Blockade Battlefront [TV] [01 из 12] (2015) HDTVRip 720p | LE-Production

7 | 5

956.41 МБ

В этой теме нет новых непрочитанных сообщений. Фронт кровавой блокады / Kekkai Sensen / Blood Blockade Battlefront [TV] [01 из 12] (2015) HDTVRip 720p | LE-Production

90 | 58

2.69 ГБ

В этой теме нет новых непрочитанных сообщений. Фронт кровавой блокады / Kekkai Sensen / Blood Blockade Battlefront [TV] [01 из 12] (2015) HDTVRip 720p | LE-Production

25 | 3

1.9 ГБ

В этой теме нет новых непрочитанных сообщений. Фронт кровавой блокады / Kekkai Sensen / Blood Blockade Battlefront [TV] [01 из 12] (2015) HDTVRip 720p | LE-Production

3 | 3

476.45 МБ

В этой теме нет новых непрочитанных сообщений. Фронт кровавой блокады / Kekkai Sensen / Blood Blockade Battlefront [TV] [01 из 12] (2015) HDTVRip 720p | LE-Production

6 | 1

1.42 ГБ

В этой теме нет новых непрочитанных сообщений. Фронт кровавой блокады / Kekkai Sensen / Blood Blockade Battlefront [TV] [01 из 12] (2015) HDTVRip 720p | LE-Production

107 | 53

4.05 ГБ

В этой теме нет новых непрочитанных сообщений. Фронт кровавой блокады / Kekkai Sensen / Blood Blockade Battlefront [TV] [01 из 12] (2015) HDTVRip 720p | LE-Production

17 | 30

3.07 ГБ




Вы не можете начинать темы
Вы не можете отвечать на сообщения
Вы не можете редактировать свои сообщения
Вы не можете удалять свои сообщения
Вы не можете добавлять вложения

Перейти:  
Для Мосгорсуда, Роскомнадзора и рекламодателей: mosgorsud-torrent[собачка]yandex.ru
 Вход
ppkBB3cker v.2 © 2008-2014 @ PPK
[ Time : 0.028s | 15 Queries | GZIP : On ]

Торрент трекер RUTOR.IN, Не можете зайти на rutor.org? Какой новый адрес рутор? Какое зеркало рутор? Не работает rutor.org и зеркала? Тогда наш торрент специально для вас. Rutor.in неофициальное зеркало rutor. В случае если у Вас заблокирован rutor или вдруг Вы не можете на него зайти, то Вы без труда сможете скачать бесплатно и без рекламы последние новинки кино, игр, сериалов и прочего у нас, на Rutor.in. Не нужно использовать прокси, чтобы зайти на рутор, достаточно воспользоваться нашим ресурсом. Все новые фильмы, игры, сериалы, книги и музыка за 2013 и 2014 годы через торрент бесплатно. Скачивайте фильмы в хорошем качестве, игры для пк, xbox, playstation без регистрации. У нас вы найдете новые Зарубежные сериалы и Русские сериалы 2013, 2014, 2015 годов. Оставайтесь с нами, качайте любимые фильмы, игры, сериалы, книги и музыку.