img image001 image001 image001 image001 image001 image001 image001 image001 image001 image001 image001 image001 image001 image001 image001

Planets Sun Sun Sun
Статистика раздачи
Автор: Nickolas3434 | Размер: 1.68 ГБ | Добавлен: 14 май 2015
Раздают: 15    Качают: 2
Скачать торрент
Скачать торрент
Описание торрента

СообщениеДобавлено: 14 май 2015 


Информация о фильме
Название: Риннэ: Меж двух миров
Оригинальное название: Kyoukai no Rinne / 境界のRinne
Страна: Япония
Год выхода: 2015
Жанр: приключения, мистика
Режиссер: Сугавара Сэйки / Sugawara Seiki / 菅原静貴
Автор оригинала: Такахаси Румико / Takahashi Rumiko / 高橋留美子
О фильме: Мамия Сакура, с детства наделённая способностью видеть призраков, встречает загадочного мальчика Рокудо Риннэ, который работает «кем-то вроде синигами». Вдвоём они помогают заблудшим духам, которых что-то держит в мире живых, избавиться от этой привязи, упокоиться с миром и взойти на колесо сансары.
Студия:
Продолжительность: ТВ (25 эп.), 25 мин.
Перевод: Любительский (двухголосый)
Озвучка: loster01 & Emeri
Субтитры: отсутствуют
Полухардсаб: надписи, логотип
Перевод на русский: zafhos
Файл
Качество: HDTVRip [Leopard-Raws]
Формат: MP4
Видео: 1280 x 720 (16:9) at 23.976 fps, AVC (x264), High@L3.0, 2338 Kbps avg, 0.106 bit/pixel, 8 bit
Аудио: 48.0 kHz, AAC, 2 ch, 256 kbps avg
Релиз от:
Общее
Полное имя : Kyoukai no Rinne.720p.HDTVRip.le-production / Kyoukai no Rinne.S01E01.720p.HDTVRip.le-production.mp4
Формат : MPEG-4
Профиль формата : Base Media
Идентификатор кодека : isom
Размер файла : 457 Мбайт
Продолжительность : 24 м.
Общий поток : 2597 Кбит/сек
Дата кодирования : UTC 2015-04-04 17:02:56
Дата пометки : UTC 2015-04-04 17:02:56
Программа кодирования : Yamb 2.1.0.0 [http://yamb.unite-video.com]
Правообладатель : LE-Production
Видео
Идентификатор : 1
Формат : AVC
Формат/Информация : Advanced Video Codec
Профиль формата : High@L3.0
Параметр CABAC формата : Да
Параметр ReFrames формата : 4 кадры
Идентификатор кодека : avc1
Идентификатор кодека/Информация : Advanced Video Coding
Продолжительность : 24 м.
Вид битрейта : Переменный
Битрейт : 2338 Кбит/сек
Максимальный битрейт : 18,5 Мбит/сек
Ширина : 1280 пикс.
Высота : 720 пикс.
Соотношение сторон : 16:9
Режим частоты кадров : Постоянный
Частота кадров : 23,976 кадр/сек
Цветовое пространство : YUV
Подвыборка цветности : 4:2:0
Битовая глубина : 8 бит
Тип развёртки : Прогрессивная
Бит/(Пиксели*Кадры) : 0.106
Размер потока : 411 Мбайт (90%)
Библиотека кодирования : x264 core 130 r2273 b3065e6
Настройки программы : cabac=1 / ref=1 / deblock=1:1:1 / analyse=0x3:0x3 / me=dia / subme=1 / psy=1 / psy_rd=0.40:0.00 / mixed_ref=0 / me_range=16 / chroma_me=1 / trellis=0 / 8x8dct=1 / cqm=0 / deadzone=21,11 / fast_pskip=1 / chroma_qp_offset=0 / threads=12 / lookahead_threads=2 / sliced_threads=0 / nr=0 / decimate=1 / interlaced=0 / bluray_compat=0 / constrained_intra=0 / bframes=5 / b_pyramid=2 / b_adapt=1 / b_bias=0 / direct=1 / weightb=1 / open_gop=0 / weightp=1 / keyint=250 / keyint_min=23 / scenecut=40 / intra_refresh=0 / rc=crf / mbtree=0 / crf=19.5 / qcomp=0.60 / qpmin=0 / qpmax=69 / qpstep=4 / ip_ratio=1.40 / pb_ratio=1.30 / aq=1:0.60
Язык : Russian
Дата кодирования : UTC 2015-04-04 17:02:56
Дата пометки : UTC 2015-04-04 17:03:03
Аудио
Идентификатор : 2
Формат : AAC
Формат/Информация : Advanced Audio Codec
Профиль формата : LC
Идентификатор кодека : 40
Продолжительность : 24 м.
Вид битрейта : Переменный
Битрейт : 256 Кбит/сек
Максимальный битрейт : 263 Кбит/сек
Канал(ы) : 2 канала(ов)
Расположение каналов : Front: L R
Частота : 48,0 КГц
Метод сжатия : С потерями
Размер потока : 45,1 Мбайт (10%)
Язык : Russian
Дата кодирования : UTC 2015-04-04 17:03:02
Дата пометки : UTC 2015-04-04 17:03:03
01. The Mysterious Student





   Похожие торренты   Торрент   Размер 
В этой теме нет новых непрочитанных сообщений. Риннэ: Меж двух миров / Kyoukai no Rinne [TV] [01 из 25] (2015) HDTVRip 720p | LE-Production

8 | 2

1.94 ГБ

В этой теме нет новых непрочитанных сообщений. Риннэ: Меж двух миров / Kyoukai no Rinne [TV] [01 из 25] (2015) HDTVRip 720p | LE-Production

14 | 2

836.65 МБ

В этой теме нет новых непрочитанных сообщений. Риннэ: Меж двух миров / Kyoukai no Rinne [TV] [01 из 25] (2015) HDTVRip 720p | LE-Production

16 | 5

1.1 ГБ

В этой теме нет новых непрочитанных сообщений. Риннэ: Меж двух миров / Kyoukai no Rinne [TV] [01-11 из 25] (2015) HDTVRip 720p | LE-Production

18 | 2

3.39 ГБ

В этой теме нет новых непрочитанных сообщений. Риннэ: Меж двух миров / Kyoukai no Rinne [TV] [01-12 из 25] (2015) HDTVRip 720p | LE-Production

64 | 3

3.63 ГБ

В этой теме нет новых непрочитанных сообщений. Риннэ: Меж двух миров / Kyoukai no Rinne [TV] [01 из 25] (2015) HDTVRip 720p | LE-Production

8 | 10

2.19 ГБ

В этой теме нет новых непрочитанных сообщений. Риннэ: Меж двух миров / Kyoukai no Rinne [TV] [01 из 25] (2015) HDTVRip 720p | LE-Production

20 | 2

457.12 МБ




Вы не можете начинать темы
Вы не можете отвечать на сообщения
Вы не можете редактировать свои сообщения
Вы не можете удалять свои сообщения
Вы не можете добавлять вложения

Перейти:  
Для Мосгорсуда, Роскомнадзора и рекламодателей: mosgorsud-torrent[собачка]yandex.ru
 Вход
ppkBB3cker v.2 © 2008-2014 @ PPK
[ Time : 0.025s | 14 Queries | GZIP : Off ]

Торрент трекер RUTOR.IN, Не можете зайти на rutor.org? Какой новый адрес рутор? Какое зеркало рутор? Не работает rutor.org и зеркала? Тогда наш торрент специально для вас. Rutor.in неофициальное зеркало rutor. В случае если у Вас заблокирован rutor или вдруг Вы не можете на него зайти, то Вы без труда сможете скачать бесплатно и без рекламы последние новинки кино, игр, сериалов и прочего у нас, на Rutor.in. Не нужно использовать прокси, чтобы зайти на рутор, достаточно воспользоваться нашим ресурсом. Все новые фильмы, игры, сериалы, книги и музыка за 2013 и 2014 годы через торрент бесплатно. Скачивайте фильмы в хорошем качестве, игры для пк, xbox, playstation без регистрации. У нас вы найдете новые Зарубежные сериалы и Русские сериалы 2013, 2014, 2015 годов. Оставайтесь с нами, качайте любимые фильмы, игры, сериалы, книги и музыку.