img image001 image001 image001 image001 image001 image001 image001 image001 image001 image001 image001 image001 image001 image001 image001

Planets Sun Sun Sun
Статистика раздачи
Автор: Nickolas3434 | Размер: 159.36 МБ | Добавлен: 17 май 2015
Раздают: 135    Качают: 4
Скачать торрент
Скачать торрент
Описание торрента

СообщениеДобавлено: 17 май 2015 


Название: Она и Её Кот
Оригинальное название: Kanojo to Kanojo no neko
Страна: Япония
Год выпуска: 1999 г.
Жанр: повседневность, драма
Тип: OVA
Продолжительность: 5 мин.
Режиссер: Синкай Макото

Описание: Ранняя работа Синкая Макото, задуманная и осуществлённая им самостоятельно. "Она и Её кот" создана летом 1999 с использованием техники рисования от руки в сочетании с трёхмерной компьютерной графикой. Чтобы уменьшить нагрузку на процессор компьютера и ускорить процесс создания, вся работа была выполнена с применением только чёрного и белого цветов. В этой своей короткометражке Синкай Макото попытался превратить трепетное тепло, смутно ощущаемое одиночество бытия, тонкие чувства в образы и звук. И надо сказать, это ему блестяще удалось.

Перевод: 19th angel
Работа со звуком: Vizzey
Озвучивание: Любительское дублированное (муж./жен.) [Vizzey & Ivaniska]
Тайминг: Vizzey
Обложка by: MadAkella
Релиз от:

Качество: BDRip [MadAkella]
Тип релиза: Полухардсаб
Формат видео: MP4
Совместимость с бытовыми плеерами: Нет
Видео: x264 (10 bit), 960x720, 4270 kbps, 24,000 fps
Аудио: [int] AAC, 183 kbps, 48 Hz, 2 ch
Общее
Полное имя : D:CactusTeam[CactusTeam]_Kanojo_to_Kanojo_no_Neko_(x264_720p_AAC)_[Vizzey_&_Ivaniska][CactusTeam]_Kanojo_to_Kanojo_no_Neko_(x264_720p_AAC)_[Vizzey_&_Ivaniska].mp4
Формат : MPEG-4
Профиль формата : Base Media
Идентификатор кодека : isom
Размер файла : 159 Мбайт
Продолжительность : 5 м. 0 с.
Режим общего битрейта : Переменный
Общий поток : 4454 Кбит/сек
Дата кодирования : UTC 2014-11-15 16:34:03
Дата пометки : UTC 2014-11-15 16:34:03
Видео
Идентификатор : 1
Формат : AVC
Формат/Информация : Advanced Video Codec
Профиль формата : High 10@L4.1
Параметр CABAC формата : Да
Параметр ReFrames формата : 4 кадра
Идентификатор кодека : avc1
Идентификатор кодека/Информация : Advanced Video Coding
Продолжительность : 5 м. 0 с.
Битрейт : 4270 Кбит/сек
Максимальный битрейт : 15,0 Мбит/сек
Ширина : 960 пикселей
Высота : 720 пикселей
Соотношение сторон : 4:3
Режим частоты кадров : Постоянный
Частота кадров : 24,000 кадра/сек
Цветовое пространство : YUV
Субдискретизация насыщенности : 4:2:0
Битовая глубина : 10 бит
Тип развёртки : Прогрессивная
Бит/(Пиксели*Кадры) : 0.257
Размер потока : 153 Мбайт (96%)
Библиотека кодирования : x264 core 125 r2200 999b753
Настройки программы : cabac=1 / ref=3 / deblock=1:0:0 / analyse=0x3:0x113 / me=hex / subme=7 / psy=1 / psy_rd=1.00:0.00 / mixed_ref=1 / me_range=16 / chroma_me=1 / trellis=1 / 8x8dct=1 / cqm=0 / deadzone=21,11 / fast_pskip=1 / chroma_qp_offset=-2 / threads=3 / lookahead_threads=1 / sliced_threads=0 / nr=0 / decimate=1 / interlaced=0 / bluray_compat=0 / constrained_intra=0 / bframes=3 / b_pyramid=2 / b_adapt=1 / b_bias=0 / direct=3 / weightb=1 / open_gop=0 / weightp=2 / keyint=250 / keyint_min=23 / scenecut=40 / intra_refresh=0 / rc_lookahead=40 / rc=2pass / mbtree=1 / bitrate=4270 / ratetol=1.0 / qcomp=0.60 / qpmin=0 / qpmax=81 / qpstep=4 / cplxblur=20.0 / qblur=0.5 / ip_ratio=1.40 / aq=1:1.00
Язык : Japanese
Дата кодирования : UTC 2014-11-16 16:16:28
Дата пометки : UTC 2014-11-15 16:34:06
Аудио
Идентификатор : 2
Формат : AAC
Формат/Информация : Advanced Audio Codec
Профиль формата : LC
Идентификатор кодека : 40
Продолжительность : 5 м. 0 с.
Вид битрейта : Переменный
Битрейт : 183 Кбит/сек
Максимальный битрейт : 279 Кбит/сек
Каналы : 2 канала
Расположение каналов : Front: L R
Частота : 48,0 КГц
Метод сжатия : С потерями
Задержка видео : 83 мс.
Размер потока : 6,55 Мбайт (4%)
Язык : Russian
Дата кодирования : UTC 2014-11-15 16:34:06
Дата пометки : UTC 2014-11-15 16:34:06




   Похожие торренты   Торрент   Размер 
В этой теме нет новых непрочитанных сообщений. Она и её кот - Всё течёт, всё меняется - / Kanojo to Kanojo no Neko: Everything Flows [ТВ] [1 из 4] (2016) WEBRip 720p | AniFilm

20 | 5

348.77 МБ

В этой теме нет новых непрочитанных сообщений. Она и её кот - Всё течёт, всё меняется - / Kanojo to Kanojo no Neko: Everything Flows [ТВ] [1 из 4] (2016) WEBRip 720p | AniFilm

57 | 9

232.46 МБ

В этой теме нет новых непрочитанных сообщений. Она и её кот - Всё течёт, всё меняется - / Kanojo to Kanojo no Neko: Everything Flows [ТВ] [1 из 4] (2016) WEBRip 720p | AniFilm

57 | 10

465.03 МБ

В этой теме нет новых непрочитанных сообщений. Она и ее кот - Всё меняется / Kanojo to Kanojo no Neko - Everything Flows [01 из 04] (2016) WEBRip 720p | SHIZA Project

63 | 0

94.02 МБ

В этой теме нет новых непрочитанных сообщений. Она и её кот - Всё течёт, всё меняется - / Kanojo to Kanojo no Neko: Everything Flows [ТВ] [1 из 4] (2016) WEBRip 720p | AniFilm

11 | 0

116.51 МБ

В этой теме нет новых непрочитанных сообщений. Она и ее кот - Всё меняется / Kanojo to Kanojo no Neko - Everything Flows [01 из 04] (2016) WEBRip 720p | AniDub, SHIZA Project

26 | 1

104.79 МБ

В этой теме нет новых непрочитанных сообщений. Она и ее кот - Всё меняется / Kanojo to Kanojo no Neko - Everything Flows [01-03 из 04] (2016) WEBRip 720p | AniDub, SHIZA Project

27 | 17

308.69 МБ




Вы не можете начинать темы
Вы не можете отвечать на сообщения
Вы не можете редактировать свои сообщения
Вы не можете удалять свои сообщения
Вы не можете добавлять вложения

Перейти:  
Для Мосгорсуда, Роскомнадзора и рекламодателей: mosgorsud-torrent[собачка]yandex.ru
 Вход
ppkBB3cker v.2 © 2008-2014 @ PPK
[ Time : 0.527s | 14 Queries | GZIP : Off ]

Торрент трекер RUTOR.IN, Не можете зайти на rutor.org? Какой новый адрес рутор? Какое зеркало рутор? Не работает rutor.org и зеркала? Тогда наш торрент специально для вас. Rutor.in неофициальное зеркало rutor. В случае если у Вас заблокирован rutor или вдруг Вы не можете на него зайти, то Вы без труда сможете скачать бесплатно и без рекламы последние новинки кино, игр, сериалов и прочего у нас, на Rutor.in. Не нужно использовать прокси, чтобы зайти на рутор, достаточно воспользоваться нашим ресурсом. Все новые фильмы, игры, сериалы, книги и музыка за 2013 и 2014 годы через торрент бесплатно. Скачивайте фильмы в хорошем качестве, игры для пк, xbox, playstation без регистрации. У нас вы найдете новые Зарубежные сериалы и Русские сериалы 2013, 2014, 2015 годов. Оставайтесь с нами, качайте любимые фильмы, игры, сериалы, книги и музыку.