img image001 image001 image001 image001 image001 image001 image001 image001 image001 image001 image001 image001 image001 image001 image001

Planets Sun Sun Sun
Статистика раздачи
Автор: Nickolas3434 | Размер: 4.28 ГБ | Добавлен: 20 май 2015
Раздают: 325    Качают: 181
Скачать торрент
Скачать торрент
Описание торрента

СообщениеДобавлено: 20 май 2015 

Токийский гуль [ТВ-2] / Tokyo Ghoul A

Перевод: Любительский (двухголосый) JAM & Nika Lenina
Субтитры: ASS, (внешние) русские by Cafesubs
Хардсаб: отсутствует
Формат: HDTVRip, MP4, H.264, AAC
Страна: Япония
Режиссер: Морита Сюхэй
Жанр: приключения, мистика, ужасы
Продолжительность: ТВ (12 эп.), 25 мин.
Год выпуска: 2015
Озвучка: JAM & Nika Lenina
Описание: Пройдя через страшную боль, унижение и ломку жизненных ценностей, Кэн Канэки переродился. Вместо неуклюжего гибрида человека и упыря возникло что-то новое, гораздо сильнее и совершеннее. Выпустив и укротив внутреннего зверя, Кэн встал на дорогу могущества, но куда она приведет? Пока что молодой боец уверен в одном – только абсолютная сила позволит ему жить так, как хочет, и защитить тех немногих, кто остался дорог. Остальные же – лишь враги, добыча, и ничего более.
Приняв закон джунглей, мрачный седой парень больше не уклоняется от конфликтов, а жестко ставит себя среди хищников. Такая резкая перемена заинтересовала тайную организацию гулей, стремящуюся к мировому господству своей расы. Возросшая активность людоедов заставила власти принять меры – а пострадать, как обычно, должны непричастные, в том числе мирные гули из кафе «Место встречи», когда-то спасшие Канэки и взявшие его под защиту. С кем будет главный герой в трудный час – со старыми или новыми друзьями? Или, как говорится, каждый за себя?

© Hollow, World Art
Видео: 1280x720 (16:9), 23.976 fps, MPEG4 Video (H264), High@L4.1 ~ 2097 kbps, 0.095 bit/pixel
Аудио #1: [JAP] 48.0KHz, AAC, 2ch, ~ 192Kbps avg
Аудио #2: [RUS] 48.0KHz, AAC, 2ch, ~ 192Kbps avg (внешним файлом)
01 - New Surge
02 - Dancing Flowers
03 - Hangman
04 - Deeper Layers
05 - Rift
06 - Thousand Paths
07 - Permeation
08 - Old Nines
09 - City in Waiting
10 - Last Rain
11 - Deluge of Flowers
12 - Ken
General
Complete name : D:avdump[Leopard-Raws] Tokyo Ghoul A - 01 RAW (MX 1280x720 x264 AAC).mp4
Format : MPEG-4
Format profile : Base Media
Codec ID : isom
File size : 401 MiB
Duration : 24mn 29s
Overall bit rate mode : Variable
Overall bit rate : 2 289 Kbps
Encoded date : UTC 2015-01-08 18:50:42
Tagged date : UTC 2015-01-08 18:50:42
Video
ID : 1
Format : AVC
Format/Info : Advanced Video Codec
Format profile : High@L4.1
Format settings, CABAC : Yes
Format settings, ReFrames : 4 frames
Codec ID : avc1
Codec ID/Info : Advanced Video Coding
Duration : 24mn 29s
Bit rate : 2 097 Kbps
Maximum bit rate : 17.0 Mbps
Width : 1 280 pixels
Height : 720 pixels
Display aspect ratio : 16:9
Frame rate mode : Constant
Frame rate : 23.976 fps
Color space : YUV
Chroma subsampling : 4:2:0
Bit depth : 8 bits
Scan type : Progressive
Bits/(Pixel*Frame) : 0.095
Stream size : 367 MiB (92%)
Title : 264:fps=23.976@GPAC0.5.1-DEV-rev4929
Writing library : x264 core 129 r2245+729M 1a52e03
Encoding settings : cabac=1 / ref=4 / deblock=1:1:-1 / analyse=0x3:0x113 / me=umh / subme=9 / psy=1 / fade_compensate=0.00 / psy_rd=1.00:0.00 / mixed_ref=1 / me_range=24 / chroma_me=1 / trellis=2 / 8x8dct=1 / cqm=0 / deadzone=21,11 / fast_pskip=1 / chroma_qp_offset=-2 / threads=8 / lookahead_threads=1 / sliced_threads=0 / nr=0 / decimate=1 / interlaced=0 / bluray_compat=0 / constrained_intra=0 / fgo=0 / bframes=9 / b_pyramid=2 / b_adapt=2 / b_bias=0 / direct=1 / weightb=1 / open_gop=0 / weightp=2 / keyint=240 / keyint_min=24 / scenecut=40 / intra_refresh=0 / rc=crf / mbtree=0 / crf=18.0 / qcomp=0.72 / qpmin=0 / qpmax=69 / qpstep=4 / ip_ratio=1.40 / pb_ratio=1.30 / aq=1:0.85
Encoded date : UTC 2015-01-08 18:50:42
Tagged date : UTC 2015-01-08 18:50:46
Color primaries : BT.709
Transfer characteristics : BT.709
Matrix coefficients : BT.709
Audio
ID : 2
Format : AAC
Format/Info : Advanced Audio Codec
Format profile : LC
Codec ID : 40
Duration : 24mn 29s
Bit rate mode : Variable
Bit rate : 192 Kbps
Maximum bit rate : 233 Kbps
Channel(s) : 2 channels
Channel positions : Front: L R
Sampling rate : 48.0 KHz
Compression mode : Lossy
Stream size : 33.0 MiB (8%)
Language : Japanese
Encoded date : UTC 2015-01-08 17:23:06
Tagged date : UTC 2015-01-08 18:50:46




   Похожие торренты   Торрент   Размер 
В этой теме нет новых непрочитанных сообщений. Токийский гуль [ТВ-2] / Токийский монстр / Tokyo Ghoul A [TV-2] [01 из 12] (2015) HDTVRip 720p | P2

23 | 16

1.67 ГБ

В этой теме нет новых непрочитанных сообщений. Токийский гуль [ТВ-2] / Токийский монстр / Tokyo Ghoul A [TV-2] [01 из 12] (2015) HDTVRip 720p | P2

91 | 44

867.89 МБ

В этой теме нет новых непрочитанных сообщений. Токийский гуль [ТВ-2] / Токийский монстр / Tokyo Ghoul A [TV-2] [01-07 из 12] (2015) HDTVRip 720p | P2

36 | 15

2.9 ГБ

В этой теме нет новых непрочитанных сообщений. Токийский гуль [ТВ-2] / Токийский монстр / Tokyo Ghoul A [TV-2] [01-08 из 12] (2015) HDTVRip 720p | P2

63 | 6

3.27 ГБ

В этой теме нет новых непрочитанных сообщений. Токийский гуль [ТВ-2] / Токийский монстр / Tokyo Ghoul A [TV-2] [01 из 12] (2015) HDTVRip 720p | P2

81 | 5

507.32 МБ

В этой теме нет новых непрочитанных сообщений. Токийский гуль / Токийский монстр / Tokyo Ghoul [01-06 из 12] (2014) HDTVRip 720p

8 | 24

2.09 ГБ

В этой теме нет новых непрочитанных сообщений. Токийский гуль / Токийский монстр / Tokyo Ghoul [01-11 из 12] (2014) HDTVRip 720p | L1

6 | 5

3.83 ГБ




Вы не можете начинать темы
Вы не можете отвечать на сообщения
Вы не можете редактировать свои сообщения
Вы не можете удалять свои сообщения
Вы не можете добавлять вложения

Перейти:  
Для Мосгорсуда, Роскомнадзора и рекламодателей: mosgorsud-torrent[собачка]yandex.ru
 Вход
ppkBB3cker v.2 © 2008-2014 @ PPK
[ Time : 0.035s | 15 Queries | GZIP : Off ]

cron