img image001 image001 image001 image001 image001 image001 image001 image001 image001 image001 image001 image001 image001 image001 image001

Planets Sun Sun Sun
Статистика раздачи
Автор: Nickolas3434 | Размер: 1.97 ГБ | Добавлен: 26 май 2015
Раздают: 40    Качают: 8
Скачать торрент
Скачать торрент
Описание торрента

СообщениеДобавлено: 26 май 2015 


Информация о фильме
Название: Исчезновение Юки Нагато
Оригинальное название: The Disappearance of Nagato Yuki-chan / Nagato Yuki-chan no Shoushitsu / 長門有希ちゃんの消失
Страна: Япония
Год выхода: 2015
Жанр: комедия
Режиссер: Вада Дзюнъити / Wada Junichi / 和田純一
Автор оригинала: Танигава Нагару / Tanigawa Nagaru / 谷川流
О фильме: Экранизация манги-спиноффа, в которой оригинальную франшизу превратили в романтическую комедию, а всех персонажей переселили в альтернативный мир из «Исчезновения Харухи Судзумии». В центре внимания оказываются отношения Кёна и Юки, а наши старые знакомые Рёко Асакура (здесь уже не поехавшая), Харухи Судзумия, Микуру Асахина и Цуруя будут всячески помогать им стать, наконец, парочкой. А, ну ещё там есть Ицки, он мебель. © Scrap
Студия:
Продолжительность: ТВ (>12 эп.), 25 мин.
Перевод: Любительский (многоголосый)
Озвучка: Emeri & ZeFirKa & loster01
Субтитры: отсутствуют
Полухардсаб: логотип
Перевод на русский: перевод: Scrap; редактор: Kogarasi
Файл
Качество: HDTVRip [Leopard-Raws]
Формат: MP4
Видео: 1280 x 720 (16:9) at 23.976 fps, AVC (x264), High@L3.0, 1816 Kbps avg, 0.082 bit/pixel, 8 bit
Аудио: 48.0 kHz, AAC, 2 ch, 256 kbps avg
Релиз от:
Общее
Полное имя : The.Disappearance.of.Nagato.Yuki-chan.720p.HDTVRip.le-production / The.Disappearance.of.Nagato.Yuki-chan.S01E01.720p.HDTVRip.le-production.proper.mp4
Формат : MPEG-4
Профиль формата : Base Media
Идентификатор кодека : isom
Размер файла : 365 Мбайт
Продолжительность : 24 м.
Общий поток : 2076 Кбит/сек
Дата кодирования : UTC 2015-04-14 16:35:37
Дата пометки : UTC 2015-04-14 16:35:37
Программа кодирования : Yamb 2.1.0.0 [http://yamb.unite-video.com]
Правообладатель : LE-Production
Видео
Идентификатор : 1
Формат : AVC
Формат/Информация : Advanced Video Codec
Профиль формата : High@L3.0
Параметр CABAC формата : Да
Параметр ReFrames формата : 4 кадры
Идентификатор кодека : avc1
Идентификатор кодека/Информация : Advanced Video Coding
Продолжительность : 24 м.
Вид битрейта : Переменный
Битрейт : 1816 Кбит/сек
Максимальный битрейт : 12,0 Мбит/сек
Ширина : 1280 пикс.
Высота : 720 пикс.
Соотношение сторон : 16:9
Режим частоты кадров : Постоянный
Частота кадров : 23,976 кадр/сек
Цветовое пространство : YUV
Подвыборка цветности : 4:2:0
Битовая глубина : 8 бит
Тип развёртки : Прогрессивная
Бит/(Пиксели*Кадры) : 0.082
Размер потока : 320 Мбайт (87%)
Библиотека кодирования : x264 core 130 r2273 b3065e6
Настройки программы : cabac=1 / ref=1 / deblock=1:1:1 / analyse=0x3:0x3 / me=dia / subme=1 / psy=1 / psy_rd=0.40:0.00 / mixed_ref=0 / me_range=16 / chroma_me=1 / trellis=0 / 8x8dct=1 / cqm=0 / deadzone=21,11 / fast_pskip=1 / chroma_qp_offset=0 / threads=12 / lookahead_threads=2 / sliced_threads=0 / nr=0 / decimate=1 / interlaced=0 / bluray_compat=0 / constrained_intra=0 / bframes=5 / b_pyramid=2 / b_adapt=1 / b_bias=0 / direct=1 / weightb=1 / open_gop=0 / weightp=1 / keyint=250 / keyint_min=23 / scenecut=40 / intra_refresh=0 / rc=crf / mbtree=0 / crf=20.0 / qcomp=0.60 / qpmin=0 / qpmax=69 / qpstep=4 / ip_ratio=1.40 / pb_ratio=1.30 / aq=1:0.60
Язык : Russian
Дата кодирования : UTC 2015-04-06 16:37:50
Дата пометки : UTC 2015-04-14 16:35:40
Аудио
Идентификатор : 2
Формат : AAC
Формат/Информация : Advanced Audio Codec
Профиль формата : LC
Идентификатор кодека : 40
Продолжительность : 24 м.
Вид битрейта : Переменный
Битрейт : 256 Кбит/сек
Максимальный битрейт : 262 Кбит/сек
Канал(ы) : 2 канала(ов)
Расположение каналов : Front: L R
Частота : 48,0 КГц
Метод сжатия : С потерями
Размер потока : 45,1 Мбайт (12%)
Язык : Russian
Дата кодирования : UTC 2015-04-14 16:35:39
Дата пометки : UTC 2015-04-14 16:35:40
1. Там, где тепло
2. Радуйся, мир!
3. Харухи Судзумия!





   Похожие торренты   Торрент   Размер 
В этой теме нет новых непрочитанных сообщений. Исчезновение Юки Нагато / The Disappearance of Nagato Yuki-chan [TV] [01-02 из 12] (2015) HDTVRip 720p | LE-Production

0 | 7

1.48 ГБ

В этой теме нет новых непрочитанных сообщений. Исчезновение Юки Нагато / The Disappearance of Nagato Yuki-chan [TV] [01-16 из 16] (2015) HDTVRip 720p | LE-Production

34 | 1

4.25 ГБ

В этой теме нет новых непрочитанных сообщений. Исчезновение Юки Нагато / The Disappearance of Nagato Yuki-chan [TV] [01-02 из 12] (2015) HDTVRip 720p | LE-Production

85 | 4

722.77 МБ

В этой теме нет новых непрочитанных сообщений. Исчезновение Юки Нагато / The Disappearance of Nagato Yuki-chan [TV] [01-02 из 12] (2015) HDTVRip 720p | LE-Production

4 | 12

1.72 ГБ

В этой теме нет новых непрочитанных сообщений. Исчезновение Юки Нагато / The Disappearance of Nagato Yuki-chan [TV] [01-02 из 12] (2015) HDTVRip 720p | LE-Production

10 | 10

1.24 ГБ

В этой теме нет новых непрочитанных сообщений. Исчезновение Юки Нагато / The Disappearance of Nagato Yuki-chan [TV] [01-02 из 12] (2015) HDTVRip 720p | LE-Production

1 | 3

978.12 МБ

В этой теме нет новых непрочитанных сообщений. Исчезновение Юки Нагато / The Disappearance of Nagato Yuki-chan / Nagato Yuki-chan no Shoushitsu [01-11 из 24] (2015) HDTVRip 720p | AniDub

19 | 5

3.36 ГБ




Вы не можете начинать темы
Вы не можете отвечать на сообщения
Вы не можете редактировать свои сообщения
Вы не можете удалять свои сообщения
Вы не можете добавлять вложения

Перейти:  
Для Мосгорсуда, Роскомнадзора и рекламодателей: mosgorsud-torrent[собачка]yandex.ru
 Вход
ppkBB3cker v.2 © 2008-2014 @ PPK
[ Time : 0.033s | 14 Queries | GZIP : On ]
CGP output time : 0.025s | 5 Queries | GZIP : On

Торрент трекер RUTOR.IN, Не можете зайти на rutor.org? Какой новый адрес рутор? Какое зеркало рутор? Не работает rutor.org и зеркала? Тогда наш торрент специально для вас. Rutor.in неофициальное зеркало rutor. В случае если у Вас заблокирован rutor или вдруг Вы не можете на него зайти, то Вы без труда сможете скачать бесплатно и без рекламы последние новинки кино, игр, сериалов и прочего у нас, на Rutor.in. Не нужно использовать прокси, чтобы зайти на рутор, достаточно воспользоваться нашим ресурсом. Все новые фильмы, игры, сериалы, книги и музыка за 2013 и 2014 годы через торрент бесплатно. Скачивайте фильмы в хорошем качестве, игры для пк, xbox, playstation без регистрации. У нас вы найдете новые Зарубежные сериалы и Русские сериалы 2013, 2014, 2015 годов. Оставайтесь с нами, качайте любимые фильмы, игры, сериалы, книги и музыку.