img image001 image001 image001 image001 image001 image001 image001 image001 image001 image001 image001 image001 image001 image001 image001

Planets Sun Sun Sun
Статистика раздачи
Автор: Nickolas3434 | Размер: 17.28 ГБ | Добавлен: 05 июн 2015
Раздают: 147    Качают: 103
Скачать торрент
Скачать торрент
Описание торрента

СообщениеДобавлено: 05 июн 2015 

Тетрадь смерти / Death Note (2006) [37 из 37] HDTVRip 720p от SDIncorporation | P

Информация о фильме
Русское название: Тетрадь смерти
Оригинальное название: Death Note
Страна: Япония
Студия: Madhouse
Год выпуска: 2006
Жанр: Детектив, Криминал, Драма, мистика
Перевод: Профессиональный многоголосый закадровый

Автор перевода: Mega-Anime
Режиссер: Араки Тэцуро
Работа над релизом:
Nod33Eset(retvil) [01-37]
69SexyMan [01-05,16-18,23-29,35-37]
StreetDespair [06-15,19-22,30-34]
Исходник: CCTV 2013 Год
Скачать: Сэмпл#1 и Сэмпл#2
О фильме:
Тетрадь смерти (яп. デスノート Дэсу Но:то, Death Note) — ставшая культовой японская манга, придуманная Цугуми Обой и нарисованная Такэси Обатой, а также выпущенные на её основе анимационные сериал и фильмы, игровые фильмы, лайт-новел и видеоигры.
В основу сюжета легла философская идея: «Можно ли добиться блага для одних людей путем убийств других?». Автор придумал оригинальную историю, в которой отражается суть того, что бы могло быть с миром, если бы человек мог безнаказанно убивать одних людей, чтобы сделать лучше жизнь других. Цугуми Ооба рассматривает реакцию как самого убийцы, его мотивы и желания, так и реакцию общества на действия убийцы.
Сюжет:
Лайт Ягами — лучший ученик Японии, сын полицейского, который с детства хотел пойти по стопам отца, чтобы искоренить преступность не только в Японии, но и во всём мире.
Однажды, когда одному из синигами (богов смерти) Рюку стало скучно, он подкинул Тетрадь смерти — совершенное орудие убийства — на Землю. Лайту, нашедшему тетрадь, выпал случай изменить мир быстро и безнаказанно. Он стал вершить своё правосудие: убивать преступников.
Торжество Лайта над преступностью было недолгим, ибо совсем скоро странными смертями преступников заинтересовался Интерпол и начал расследование, подключив к нему не только весь мир, но и самого востребованного детектива, всегда скрывающегося под псевдонимом L (Эл). L начинает настоящую войну с Лайтом, которому в это время уже дали прозвище Кира (латиницей яп. キラ, Kira — убийца). Противостояние гениев — лучшего ученика Японии с одной стороны и лучшего детектива в мире с другой — начинает историю «Тетради смерти».
Лайт не может совершать ошибки, потому что если его поймают, он не сможет вершить своё правосудие и получит смертный приговор. Его оппонент тоже не может сделать ни одной ошибки, потому что в противном случае Кира убьёт его. В это противостояние, к тому же, вмешиваются сверхъестественные силы в лице богов смерти, а также другие последователи Киры и сторонники L.


Продолжительность: 37 из 37 серий по ~00:25:00
Качество видео: HDTVRip 720p
Видеокодек: H.263
Формат: MKV
Битрейт видео: ~2800 Kbps
Размер кадра: 1280x720
Аудиокодек: AC3
Битрейт аудио: 256 kb/s & 320 kbps
Аудио #1: Русский ( 48 kHz, AC3 Dolby Digital, 2 channels, ~256 kbps) — Профессиональный многоголосый закадровый [Mega-Anime]
Аудио #2: Японский ( 48 KHz, AC3 Dolby Digital, 2 channels, ~320 kbps) — Оригинал


General
Unique ID : 253870193526929506695860071290357928942 (0xBEFD9EEAC9E13B0D827D2CFDC907D3EE)
Complete name : 01. Перерождение.mkv
Format : Matroska
Format version : Version 4 / Version 2
File size : 556 MiB
Duration : 22mn 50s
Overall bit rate : 3 405 Kbps
Movie name : Death Note Episode 1 [720p] (Mega-Anime) © SDIncorporation
Encoded date : UTC 2015-06-02 12:02:30
Writing application : mkvmerge v7.9.0 ('Birds') 64bit
Writing library : libebml v1.3.1 + libmatroska v1.4.2
DURATION : 00:22:50.080000000
NUMBER_OF_FRAMES : 42815
NUMBER_OF_BYTES : 54803200
_STATISTICS_WRITING_APP : mkvmerge v7.9.0 ('Birds') 64bit
_STATISTICS_WRITING_DATE_UT : 2015-06-02 12:02:30
_STATISTICS_TAGS : BPS DURATION NUMBER_OF_FRAMES NUMBER_OF_BYTES
Video
ID : 1
Format : MPEG-4 Visual
Format profile : Advanced Simple@L5
Format settings, BVOP : 1
Format settings, QPel : No
Format settings, GMC : No warppoints
Format settings, Matrix : Default (H.263)
Codec ID : V_MS/VFW/FOURCC / XVID
Codec ID/Hint : XviD
Duration : 22mn 50s
Bit rate : 2 761 Kbps
Width : 1 280 pixels
Height : 720 pixels
Display aspect ratio : 16:9
Frame rate mode : Constant
Frame rate : 25.000 fps
Color space : YUV
Chroma subsampling : 4:2:0
Bit depth : 8 bits
Scan type : Progressive
Compression mode : Lossy
Bits/(Pixel*Frame) : 0.120
Stream size : 451 MiB (81%)
Writing library : XviD 1.2.1 (UTC 2008-12-04)
Default : Yes
Forced : No
Audio #1
ID : 2
Format : AC-3
Format/Info : Audio Coding 3
Mode extension : CM (complete main)
Format settings, Endianness : Big
Codec ID : A_AC3
Duration : 22mn 50s
Bit rate mode : Constant
Bit rate : 256 Kbps
Channel(s) : 2 channels
Channel positions : Front: L R
Sampling rate : 48.0 KHz
Bit depth : 16 bits
Compression mode : Lossy
Stream size : 41.8 MiB (8%)
Title : Mega-Anime
Language : Russian
Default : Yes
Forced : No
Audio #2
ID : 3
Format : AC-3
Format/Info : Audio Coding 3
Mode extension : CM (complete main)
Format settings, Endianness : Big
Codec ID : A_AC3
Duration : 22mn 50s
Bit rate mode : Constant
Bit rate : 320 Kbps
Channel(s) : 2 channels
Channel positions : Front: L R
Sampling rate : 48.0 KHz
Bit depth : 16 bits
Compression mode : Lossy
Stream size : 52.3 MiB (9%)
Title : Japanese
Language : Japanese
Default : No
Forced : No

01 - Перерождение
02 - Конфронтация
03 - Сделка
04 - Преследование
05 - Тактика
06 - Разрыв
07 - Облачное небо
08 - Взгляд
09 - Контакт
10 - Подозрение
11 - Вторжение
12 - Любовь
13. Признание
14 - Друг
15 - Игра
16 - Решение
17 - Казнь
18 - Компаньон
19 - Мацуда
20 - Замена
21 - Участие
22 - Управление
23 - Мания
24 - Возрождение










Время раздачи: С 8:00 до 22:00
Релиз от: ©SDIncorporation



   Похожие торренты   Торрент   Размер 
В этой теме нет новых непрочитанных сообщений. Тетрадь смерти / Death Note [01-12, 14 из 37] (2006) HDTVRip 720p от SDIncorporation | P

3 | 6

5.99 ГБ

В этой теме нет новых непрочитанных сообщений. Тетрадь смерти / Death Note [01-12,14-15,18 из 37] (2006) HDTVRip 720p от SDIncorporation | P

15 | 8

6.82 ГБ

В этой теме нет новых непрочитанных сообщений. Тетрадь смерти / Death Note (2006) [01-10 из 37] HDTVRip 720p от SDIncorporation | P

13 | 5

4.61 ГБ

В этой теме нет новых непрочитанных сообщений. Тетрадь смерти / Death Note [01-11 из 37] (2006) HDTVRip 720p от SDIncorporation | P

10 | 5

5.19 ГБ

В этой теме нет новых непрочитанных сообщений. Тетрадь смерти / Death Note (2006) [01-15,18-21,23-24 из 37] HDTVRip 720p от SDIncorporation | P

8 | 11

9.28 ГБ

В этой теме нет новых непрочитанных сообщений. Тетрадь смерти / Death Note (2006) [01-12 из 37] HDTVRip 720p от SDIncorporation | P

2 | 7

5.6 ГБ

В этой теме нет новых непрочитанных сообщений. Тетрадь смерти / Death Note [01-24 из 37] (2006) HDTVRip 720p от SDIncorporation | P

9 | 8

10.52 ГБ




Вы не можете начинать темы
Вы не можете отвечать на сообщения
Вы не можете редактировать свои сообщения
Вы не можете удалять свои сообщения
Вы не можете добавлять вложения

Перейти:  
Для Мосгорсуда, Роскомнадзора и рекламодателей: mosgorsud-torrent[собачка]yandex.ru
 Вход
ppkBB3cker v.2 © 2008-2014 @ PPK
[ Time : 0.023s | 14 Queries | GZIP : Off ]

Торрент трекер RUTOR.IN, Не можете зайти на rutor.org? Какой новый адрес рутор? Какое зеркало рутор? Не работает rutor.org и зеркала? Тогда наш торрент специально для вас. Rutor.in неофициальное зеркало rutor. В случае если у Вас заблокирован rutor или вдруг Вы не можете на него зайти, то Вы без труда сможете скачать бесплатно и без рекламы последние новинки кино, игр, сериалов и прочего у нас, на Rutor.in. Не нужно использовать прокси, чтобы зайти на рутор, достаточно воспользоваться нашим ресурсом. Все новые фильмы, игры, сериалы, книги и музыка за 2013 и 2014 годы через торрент бесплатно. Скачивайте фильмы в хорошем качестве, игры для пк, xbox, playstation без регистрации. У нас вы найдете новые Зарубежные сериалы и Русские сериалы 2013, 2014, 2015 годов. Оставайтесь с нами, качайте любимые фильмы, игры, сериалы, книги и музыку.