img image001 image001 image001 image001 image001 image001 image001 image001 image001 image001 image001 image001 image001 image001 image001

Planets Sun Sun Sun
Статистика раздачи
Автор: Nickolas3434 | Размер: 4.37 ГБ | Добавлен: 13 июн 2015
Раздают: 141    Качают: 13
Скачать торрент
Скачать торрент
Описание торрента

СообщениеДобавлено: 13 июн 2015 


Информация о фильме
    Русское название: Первый отряд
    Оригинальное название: First Squad: The Moment of Truth
    Год выхода: 2009
    Жанр: аниме, мультфильм, фэнтези, приключения
    Режиссер: Ёсихару Асино
    Выпущено: Россия, Канада, Япония
    Продолжительность: 00:59:47
    Перевод: Дублированный
    Роли дублировали: Елена Чебатуркина, Михаил Тихонов, Дамир Эльдаров, Людмила Шувалова, Ирина Савина, Сергей Айсман, Александр Груздев, Рудольф Панков, Никита Прозоровский, Ольга Голованова


Сюжет фильма
    Действие мультфильма разворачивается в 1942 году. Отряд пионеров-героев вступает в схватку с фашистскими оккупантами и призраками рыцарей Ливонского ордена, вызванными из загробного мира нацистскими магами из печально известной организации Аненербе. Разумеется, главные герои — не простые пионеры. Они прошли обучение в Шестом Отделе Управления Военной Разведки. Этот отдел занимается парапсихологией и оккультизмом. И теперь они готовы защищать Родину на невидимом для простых смертных фронте.


Файл
    Качество: BDRip 1080p (исходник Blu-ray Disc RUS)
    Видео: 1920x1080, 9833 Кбит/сек, 24,000 кадр/сек, AVC, x264, High@L4.1, 16:9, 0.198 Бит/[Пиксели*Кадры]
    Аудио 1: AC-3, 640 Кбит/сек, 6 канала(ов), 48,0 КГц - Дублированный / Русский
    Субтитры: Нет
    Форсированные субтитры: Нет
    Чаптеры (Главы): Есть



Автор Рипа: Сообщество:



Format : Matroska
Format version : Version 2
File size : 4.37 GiB
Duration : 59mn 47s
Overall bit rate : 10.5 Mbps
Movie name : Первый отряд.(2009).BDRip.1080p.[envy]
Encoded date : UTC 2015-06-11 16:10:35
Writing application : mkvmerge v5.8.0 ('No Sleep / Pillow') built on Sep 2 2012 15:37:04
Writing library : libebml v1.2.3 + libmatroska v1.3.0
Video
ID : 1
Format : AVC
Format/Info : Advanced Video Codec
Format profile : High@L4.1
Format settings, CABAC : Yes
Format settings, ReFrames : 4 frames
Codec ID : V_MPEG4/ISO/AVC
Duration : 59mn 47s
Bit rate : 9 833 Kbps
Width : 1 920 pixels
Height : 1 080 pixels
Display aspect ratio : 16:9
Frame rate mode : Constant
Frame rate : 24.000 fps
Color space : YUV
Chroma subsampling : 4:2:0
Bit depth : 8 bits
Scan type : Progressive
Bits/(Pixel*Frame) : 0.198
Stream size : 4.01 GiB (92%)
Title : Первый отряд.(2009).BDRip.1080p.[envy]
Writing library : x264 core 146 r2538 121396c
Encoding settings : cabac=1 / ref=4 / deblock=1:-1:-1 / analyse=0x3:0x133 / me=umh / subme=11 / psy=1 / psy_rd=1.00:0.00 / mixed_ref=1 / me_range=32 / chroma_me=1 / trellis=2 / 8x8dct=1 / cqm=0 / deadzone=21,11 / fast_pskip=0 / chroma_qp_offset=-2 / threads=12 / lookahead_threads=1 / sliced_threads=0 / nr=0 / decimate=1 / interlaced=0 / bluray_compat=0 / constrained_intra=0 / bframes=6 / b_pyramid=2 / b_adapt=2 / b_bias=0 / direct=3 / weightb=1 / open_gop=0 / weightp=2 / keyint=240 / keyint_min=24 / scenecut=40 / intra_refresh=0 / rc=2pass / mbtree=0 / bitrate=9833 / ratetol=2.0 / qcomp=0.60 / qpmin=0 / qpmax=69 / qpstep=4 / cplxblur=20.0 / qblur=0.5 / ip_ratio=1.40 / pb_ratio=1.30 / aq=2:0.70
Language : English
Default : Yes
Forced : No
Audio
ID : 2
Format : AC-3
Format/Info : Audio Coding 3
Mode extension : CM (complete main)
Format settings, Endianness : Big
Codec ID : A_AC3
Duration : 59mn 47s
Bit rate mode : Constant
Bit rate : 640 Kbps
Channel(s) : 6 channels
Channel positions : Front: L C R, Side: L R, LFE
Sampling rate : 48.0 KHz
Bit depth : 16 bits
Compression mode : Lossy
Stream size : 274 MiB (6%)
Title : Dub
Language : Russian
Default : Yes
Forced : No
Menu
00:00:00.000 : :Chapter 01
00:04:55.000 : :Chapter 02
00:11:22.916 : :Chapter 03
00:14:47.500 : :Chapter 04
00:21:35.583 : :Chapter 05
00:27:37.291 : :Chapter 06
00:32:11.666 : :Chapter 07
00:38:17.166 : :Chapter 08
00:44:40.833 : :Chapter 09
00:48:47.250 : :Chapter 10


#77



   Похожие торренты   Торрент   Размер 
В этой теме нет новых непрочитанных сообщений. Первый отряд: Момент истины / First Squad: The Moment of Truth (2009) BDRip от HQCLUB

321 | 9

1.09 ГБ

В этой теме нет новых непрочитанных сообщений. Первый отряд. Момент истины / First Squad: The Moment Of Truth (2009) BDRip 720p

23 | 6

2.18 ГБ

В этой теме нет новых непрочитанных сообщений. Первый отряд / First Squad: The Moment of Truth (2009) HDRip-AVC | Лицензия

43 | 2

1.32 ГБ

В этой теме нет новых непрочитанных сообщений. Первый отряд. Момент истины / First Squad - The Moment Of Truth (2009) DVDRip

4 | 2

1.16 ГБ

В этой теме нет новых непрочитанных сообщений. Первый отряд. Момент истины / First Squad - The Moment Of Truth (2009) DVDRip

159 | 5

663.02 МБ

В этой теме нет новых непрочитанных сообщений. Первый отряд. Момент истины / First Squad - The Moment Of Truth (2009) DVDRip | без видеовставок

2 | 3

1.04 ГБ

В этой теме нет новых непрочитанных сообщений. Первый отряд. Момент истины / First Squad: The Moment Of Truth (2009) 2xDVD5 от New-Team | D | Лицензия

5 | 5

7.98 ГБ




Вы не можете начинать темы
Вы не можете отвечать на сообщения
Вы не можете редактировать свои сообщения
Вы не можете удалять свои сообщения
Вы не можете добавлять вложения

Перейти:  
Для Мосгорсуда, Роскомнадзора и рекламодателей: mosgorsud-torrent[собачка]yandex.ru
 Вход
ppkBB3cker v.2 © 2008-2014 @ PPK
[ Time : 0.083s | 15 Queries | GZIP : On ]

Торрент трекер RUTOR.IN, Не можете зайти на rutor.org? Какой новый адрес рутор? Какое зеркало рутор? Не работает rutor.org и зеркала? Тогда наш торрент специально для вас. Rutor.in неофициальное зеркало rutor. В случае если у Вас заблокирован rutor или вдруг Вы не можете на него зайти, то Вы без труда сможете скачать бесплатно и без рекламы последние новинки кино, игр, сериалов и прочего у нас, на Rutor.in. Не нужно использовать прокси, чтобы зайти на рутор, достаточно воспользоваться нашим ресурсом. Все новые фильмы, игры, сериалы, книги и музыка за 2013 и 2014 годы через торрент бесплатно. Скачивайте фильмы в хорошем качестве, игры для пк, xbox, playstation без регистрации. У нас вы найдете новые Зарубежные сериалы и Русские сериалы 2013, 2014, 2015 годов. Оставайтесь с нами, качайте любимые фильмы, игры, сериалы, книги и музыку.