img image001 image001 image001 image001 image001 image001 image001 image001 image001 image001 image001 image001 image001 image001 image001

Planets Sun Sun Sun
Статистика раздачи
Автор: Nickolas3434 | Размер: 6.94 ГБ | Добавлен: 19 июн 2015
Раздают: 93    Качают: 10
Скачать торрент
Скачать торрент
Описание торрента

СообщениеДобавлено: 19 июн 2015 


Информация о фильме
Название : Слёзы Тиары
Оригинальное название : Tears to Tiara / ティアーズ・トゥ・ティアラ
Год выхода : 2009
Жанр : Приключения, комедия, драма, фэнтези
Режиссер : Кобаяси Томоки

Описание : На зеленый остров Эрин, населенный гэльскими племенами, вторгаются войска Священной Империи. Сенат, напуганный пророчеством, отправил Верховного жреца Дорвка навеки заточить спящего где-то в Эрине Повелителя демонов Аравна, час пробуждения которого уже близок. На деле коварный жрец задумал совсем другое – лично разбудить владыку демонов и получить от него в знак благодарности верховную власть, а всех врагов уничтожить. Ясно, что для темного дела нужна человеческая жертва – и воины Империи нападают на небольшую деревню, пользуясь тем, что все мужчины племени на охоте. Захватив жрицу Рианнон, потомка эльфийских королей, Дорвк и его люди проникают в пещеру Аравна и приступают к ритуалу, а гэльские воины, бросившиеся в погоню, безнадежно запаздывают…
Вот только никто не думал, что Аравн, в прошлом – мятежный ангел, вовсе не собирается пожирать предложенную жертву и уничтожать мир. За тысячу лет заточения бывший владыка демонов изменился и теперь желает хоть частично искупить грехи прошлого. С первого взгляда он полюбил прекрасную и отважную Рианнон и решил помочь ей и ее людям. Встав во главе союза гэльских племен и немногих оставшихся эльфов, Аравн, Рианнон и ее брат Артур начинают борьбу с безжалостной Империей. Тиара, символ имперской власти, будет повержена!
Страна : Япония
Производство : Aqua Plus, Oriental Light and Magic, T3Works, White Fox
Продолжительность : ~25 мин (26 серии)
Перевод: Любительский (двухголосый, закадровый), Любительский (одноголосый, закадровый)
Субтитры: Blazing Wizard & Kekcelt & Rictorn
Озвучка:
- двухголосая закадровая: (жен./ муж.) Persona99 & MaxDamage
- одноголосая закадровая: (муж.) Cuba77
Автор рипа : Yashats
Файл
Формат видео: AVI
Качество : BDRip (DS of Coalgirls)
Наличие линковки: Нет
Видео: XVID, 704x396 (16:9), 1157 kbps, 23.976 fps, 8bit
Аудио 1: Русский, MP3, 160 Кбит/с, 48.0 Hz, 2 ch (в составе контейнера)
Аудио 2: Русский, MP3, 160 Кбит/с, 48.0 Hz, 2 ch (в составе контейнера)
Аудио 3: Японский, MP3, 160 Кбит/с, 48.0 Hz, 2 ch (в составе контейнера)
Субтитры (ASS/SRT): Русские (внешним фаилом)

01. Воскрешение короля-демона
02. Люди чести
03. Отплытие
04. Авалон
05. Лондиниум
06. Бездушная долина
07. Колизей
08. Рубрум
09. Нападение
10. Благородная мечница
11. Реквием
12. Угроза империи
13. Бриганты
14. Белый ангел
15. Мученик
16. Повод для борьбы
17. За друзей!
18. Возвращение
19. Дитя ночи
20. Люцифер
21. Песнь Начала
22. Дирнвин
23. Палладиум
24. Гравитас
25. Меркадис
26. Слова силы


General
Complete name : H:TorrentVivodTears_to_Tiara_[BDRip]_[HWP]Tears_to_Tiara_[TV]_[01_of_26]_[rus_jap]_[BDRip]_[HWP].avi
Format : AVI
Format/Info : Audio Video Interleave
File size : 282 MiB
Duration : 23mn 46s
Overall bit rate : 1 657 Kbps
Writing application : VirtualDubMod 1.5.10.2 (build 2540/release)
Writing library : VirtualDubMod build 2540/release
Video
ID : 0
Format : MPEG-4 Visual
Format profile : Advanced Simple@L5
Format settings, BVOP : Yes
Format settings, QPel : No
Format settings, GMC : No warppoints
Format settings, Matrix : Custom
Codec ID : XVID
Codec ID/Hint : XviD
Duration : 23mn 46s
Bit rate : 1 158 Kbps
Width : 704 pixels
Height : 396 pixels
Display aspect ratio : 16:9
Frame rate : 23.976 fps
Color space : YUV
Chroma subsampling : 4:2:0
Bit depth : 8 bits
Scan type : Progressive
Bits/(Pixel*Frame) : 0.173
Stream size : 197 MiB (70%)
Writing library : XviD 1.2.0.dev49
Audio #1
ID : 1
Format : MPEG Audio
Format version : Version 1
Format profile : Layer 3
Mode : Joint stereo
Mode extension : MS Stereo
Codec ID : 55
Codec ID/Hint : MP3
Duration : 23mn 46s
Bit rate mode : Constant
Bit rate : 160 Kbps
Channel(s) : 2 channels
Sampling rate : 48.0 KHz
Stream size : 27.2 MiB (10%)
Alignment : Aligned on interleaves
Interleave, duration : 42 ms (1.00 video frame)
Interleave, preload duration : 504 ms
Title : [Persona99 & MaxDamage]
Audio #2
ID : 2
Format : MPEG Audio
Format version : Version 1
Format profile : Layer 3
Mode : Joint stereo
Mode extension : MS Stereo
Codec ID : 55
Codec ID/Hint : MP3
Duration : 23mn 46s
Bit rate mode : Constant
Bit rate : 160 Kbps
Channel(s) : 2 channels
Sampling rate : 48.0 KHz
Stream size : 27.2 MiB (10%)
Alignment : Aligned on interleaves
Interleave, duration : 42 ms (1.00 video frame)
Interleave, preload duration : 504 ms
Title : [Cuba77]
Writing library : LAME3.98.4
Audio #3
ID : 3
Format : MPEG Audio
Format version : Version 1
Format profile : Layer 3
Mode : Joint stereo
Mode extension : MS Stereo
Codec ID : 55
Codec ID/Hint : MP3
Duration : 23mn 45s
Bit rate mode : Constant
Bit rate : 160 Kbps
Channel(s) : 2 channels
Sampling rate : 48.0 KHz
Stream size : 27.2 MiB (10%)
Alignment : Aligned on interleaves
Interleave, duration : 42 ms (1.00 video frame)
Interleave, preload duration : 504 ms
Title : [Japanese]
Writing library : LAME3.98.4ЄЄЄЄЄЄЄЄЄЄ





   Похожие торренты   Торрент   Размер 
В этой теме нет новых непрочитанных сообщений. Слезы сектора Газа / Слезы Газы / Tears of Gaza (2010) DVDRip

3 | 1

740.86 МБ

В этой теме нет новых непрочитанных сообщений. Слезы счастья / Happy Tears (2009) DVDRip

0 | 1

700.32 МБ

В этой теме нет новых непрочитанных сообщений. Слезы солнца / Tears of the sun (2003) BDRip

13 | 5

1.45 ГБ

В этой теме нет новых непрочитанных сообщений. Слёзы Солнца / Tears of the Sun (2003) BDRip от FlintFilms

1 | 3

2.91 ГБ

В этой теме нет новых непрочитанных сообщений. Слезы солнца / Tears of the Sun (2003) BDRip 1080p

47 | 5

7.76 ГБ

В этой теме нет новых непрочитанных сообщений. Слезы солнца / Tears of the sun (2003) BDRip 720p

7 | 6

4.33 ГБ

В этой теме нет новых непрочитанных сообщений. Слезы Солнца / Tears of the Sun (2003) BDRip-AVC от 0ptimus | D, P, A

42 | 6

4.33 ГБ




Вы не можете начинать темы
Вы не можете отвечать на сообщения
Вы не можете редактировать свои сообщения
Вы не можете удалять свои сообщения
Вы не можете добавлять вложения

Перейти:  
Для Мосгорсуда, Роскомнадзора и рекламодателей: mosgorsud-torrent[собачка]yandex.ru
 Вход
ppkBB3cker v.2 © 2008-2014 @ PPK
[ Time : 0.103s | 14 Queries | GZIP : Off ]

Торрент трекер RUTOR.IN, Не можете зайти на rutor.org? Какой новый адрес рутор? Какое зеркало рутор? Не работает rutor.org и зеркала? Тогда наш торрент специально для вас. Rutor.in неофициальное зеркало rutor. В случае если у Вас заблокирован rutor или вдруг Вы не можете на него зайти, то Вы без труда сможете скачать бесплатно и без рекламы последние новинки кино, игр, сериалов и прочего у нас, на Rutor.in. Не нужно использовать прокси, чтобы зайти на рутор, достаточно воспользоваться нашим ресурсом. Все новые фильмы, игры, сериалы, книги и музыка за 2013 и 2014 годы через торрент бесплатно. Скачивайте фильмы в хорошем качестве, игры для пк, xbox, playstation без регистрации. У нас вы найдете новые Зарубежные сериалы и Русские сериалы 2013, 2014, 2015 годов. Оставайтесь с нами, качайте любимые фильмы, игры, сериалы, книги и музыку.