img image001 image001 image001 image001 image001 image001 image001 image001 image001 image001 image001 image001 image001 image001 image001

Planets Sun Sun Sun
Статистика раздачи
Автор: Nickolas3434 | Размер: 6.81 ГБ | Добавлен: 22 июн 2015
Раздают: 236    Качают: 32
Скачать торрент
Скачать торрент
Описание торрента

СообщениеДобавлено: 22 июн 2015 


Информация о фильме
Название: Твоя апрельская ложь / Твои апрельские грезы
Оригинальное название: Shigatsu wa Kimi no Uso / Your Lie in April
Год выхода: 2014 -2015
Жанр: драма, музыка, романтика, школа
Режиссер: Исигуро Кёхэй
Художник: Усуй Хисаё, Сиодзава Ёсинори
В ролях: Ханаэ Нацуки, Танэда Риса, Сакура Аянэ, Осака Рёта, Хаями Саори, Кадзи Юки
О фильме:
Косэй Арима — мальчик, профессионально играющий на фортепиано, выигрывал все детские конкурсы, его имя было известно всем начинающим музыкантам. Мать Косэя была его учителем. После того, как она неожиданно скончалась, у Косэя случился нервный срыв во время выступления, в результате чего он больше не мог чувствовать музыку, несмотря на прекрасный слух и большой талант.
Спустя несколько лет Косэй все еще не притрагивался к пианино; мир кажется ему серым и монотонным. Он рад, что у него еще остались хорошие друзья такие, как Цубаки и Ватари.В один прекрасный день он встречает девушку по имени Каори, талантливую и свободную духом скрипачку, чей стиль игры отражает её личность и душу. Каори хочет помочь Косэю вернуться в музыкальный мир и снова почувствовать музыку...

Страна: Япония
Студия: A-1 Pictures
Продолжительность: 00:24:00
Язык: Русский
Перевод: Профессиональный многоголосый закадровый (KANSAI STUDIO)
Файл
Качество: HDTVRip
Формат: MP4
Кодек: H.264
Видео: 1280x720, 23.976 fps, ~1950 kbps
Звук: Аудио кодек: AAC
Аудио RUS: 48.0 kHz, AAC, 2 ch, 192 kbps

01. Monotone / Colorful
02. Friend A
03. Inside Spring
04. Departure
05. Gray Skies
06. On the Way Home
07. The Shadows Whisper
08. Let It Ring
09. Resonance
10. The Scenery I Shared with You
11. Light of Life
12. Twinkle Little Star
13. Love`s Sadness
14. Footprints
15. Liar
16. Two of a Kind
17. Twilight
18. Hearts Come Together
19. Goodbye Hero
20. Hand in Hand
21. Snow
22. Spring Wind
General
Format : MPEG-4
Format profile : Base Media
Codec ID : isom
File size : 349 MiB
Duration : 23mn 0s
Overall bit rate mode : Variable
Overall bit rate : 2 120 Kbps
Encoded date : UTC 2014-10-15 01:37:21
Tagged date : UTC 2014-10-15 01:37:21
Writing application : Yamb 2.1.0.0
Video
ID : 1
Format : AVC
Format/Info : Advanced Video Codec
Format profile : High@L4.1
Format settings, CABAC : Yes
Format settings, ReFrames : 4 frames
Codec ID : avc1
Codec ID/Info : Advanced Video Coding
Duration : 22mn 59s
Bit rate : 1 925 Kbps
Maximum bit rate : 10.8 Mbps
Width : 1 280 pixels
Height : 720 pixels
Display aspect ratio : 16:9
Frame rate mode : Constant
Frame rate : 23.976 fps
Color space : YUV
Chroma subsampling : 4:2:0
Bit depth : 8 bits
Scan type : Progressive
Bits/(Pixel*Frame) : 0.087
Stream size : 317 MiB (91%)
Title : 264
Writing library : x264 core 129 r2245+729M 1a52e03
Encoding settings : cabac=1 / ref=4 / deblock=1:1:-1 / analyse=0x3:0x113 / me=umh / subme=9 / psy=1 / fade_compensate=0.00 / psy_rd=1.00:0.00 / mixed_ref=1 / me_range=24 / chroma_me=1 / trellis=2 / 8x8dct=1 / cqm=0 / deadzone=21,11 / fast_pskip=1 / chroma_qp_offset=-2 / threads=8 / lookahead_threads=1 / sliced_threads=0 / nr=0 / decimate=1 / interlaced=0 / bluray_compat=0 / constrained_intra=0 / fgo=0 / bframes=9 / b_pyramid=2 / b_adapt=2 / b_bias=0 / direct=1 / weightb=1 / open_gop=0 / weightp=2 / keyint=240 / keyint_min=24 / scenecut=40 / intra_refresh=0 / rc=crf / mbtree=0 / crf=18.5 / qcomp=0.72 / qpmin=0 / qpmax=69 / qpstep=4 / ip_ratio=1.40 / pb_ratio=1.30 / aq=1:0.85
Encoded date : UTC 2014-10-10 02:38:51
Tagged date : UTC 2014-10-15 01:37:30
Color primaries : BT.709
Transfer characteristics : BT.709
Matrix coefficients : BT.709
Audio
ID : 2
Format : AAC
Format/Info : Advanced Audio Codec
Format profile : LC
Codec ID : 40
Duration : 23mn 0s
Bit rate mode : Variable
Bit rate : 192 Kbps
Maximum bit rate : 198 Kbps
Channel(s) : 2 channels
Channel positions : Front: L R
Sampling rate : 48.0 KHz
Compression mode : Lossy
Stream size : 31.6 MiB (9%)
Title : Kansai
Language : Russian
Encoded date : UTC 2014-10-15 01:37:29
Tagged date : UTC 2014-10-15 01:37:30



   Похожие торренты   Торрент   Размер 
В этой теме нет новых непрочитанных сообщений. Твоя апрельская ложь / Shigatsu wa Kimi no Uso / Your Lie in April [TV] [01-02 из 22] (2014) WEBRip 720p | LE-Production

3 | 6

812.13 МБ

В этой теме нет новых непрочитанных сообщений. Твоя апрельская ложь / Shigatsu wa Kimi no Uso / Your Lie in April [TV] [01-02 из 22] (2014) WEBRip 720p | LE-Production

16 | 7

1.17 ГБ

В этой теме нет новых непрочитанных сообщений. Твоя апрельская ложь / Shigatsu wa Kimi no Uso [01 из 22] (2014) WEBRip 720p | AniFilm

18 | 5

337.18 МБ

В этой теме нет новых непрочитанных сообщений. Твоя апрельская ложь / Shigatsu wa Kimi no Uso [01-02 из 22] (2014) WEBRip 720p | AniFilm

18 | 12

671.34 МБ

В этой теме нет новых непрочитанных сообщений. Твоя апрельская ложь / Shigatsu wa Kimi no Uso [01-10 из 22] (2014) WEBRip 720p | AniFilm

35 | 8

3.32 ГБ

В этой теме нет новых непрочитанных сообщений. Твоя апрельская ложь / Shigatsu wa Kimi no Uso [01-02 из 22] (2014) WEBRip 720p | AniFilm

6 | 8

1009.8 МБ

В этой теме нет новых непрочитанных сообщений. Твоя апрельская ложь / Shigatsu wa Kimi no Uso [01-04 из 22] (2014) WEBRip 720p | AniFilm

15 | 5

1.32 ГБ




Вы не можете начинать темы
Вы не можете отвечать на сообщения
Вы не можете редактировать свои сообщения
Вы не можете удалять свои сообщения
Вы не можете добавлять вложения

Перейти:  
Для Мосгорсуда, Роскомнадзора и рекламодателей: mosgorsud-torrent[собачка]yandex.ru
 Вход
ppkBB3cker v.2 © 2008-2014 @ PPK
[ Time : 0.035s | 14 Queries | GZIP : Off ]

Торрент трекер RUTOR.IN, Не можете зайти на rutor.org? Какой новый адрес рутор? Какое зеркало рутор? Не работает rutor.org и зеркала? Тогда наш торрент специально для вас. Rutor.in неофициальное зеркало rutor. В случае если у Вас заблокирован rutor или вдруг Вы не можете на него зайти, то Вы без труда сможете скачать бесплатно и без рекламы последние новинки кино, игр, сериалов и прочего у нас, на Rutor.in. Не нужно использовать прокси, чтобы зайти на рутор, достаточно воспользоваться нашим ресурсом. Все новые фильмы, игры, сериалы, книги и музыка за 2013 и 2014 годы через торрент бесплатно. Скачивайте фильмы в хорошем качестве, игры для пк, xbox, playstation без регистрации. У нас вы найдете новые Зарубежные сериалы и Русские сериалы 2013, 2014, 2015 годов. Оставайтесь с нами, качайте любимые фильмы, игры, сериалы, книги и музыку.