img image001 image001 image001 image001 image001 image001 image001 image001 image001 image001 image001 image001 image001 image001 image001

Planets Sun Sun Sun
Статистика раздачи
Автор: Nickolas3434 | Размер: 3.43 ГБ | Добавлен: 22 июн 2015
Раздают: 224    Качают: 46
Скачать торрент
Скачать торрент
Описание торрента

СообщениеДобавлено: 22 июн 2015 


Информация о фильме
Название: Искусственный отбор
Оригинальное название: Triage X
Год выхода: 2015
Жанр: приключения, этти
Режиссер: Като Такао
Художник: Таниока Ёсио, Канэсиро Сая
В ролях: Акабанэ Кэндзи, Кондо Юй, Сато Амина, Ора Фуюка, Асано Масуми, Сирайси Рёко
О фильме:
Больница Мочизуки может похвастаться одними из самых хорошо подготовленных (и не хуже обеспеченных) медсестер в городе. И хотя эти дамы тратят значительную часть своего дня на борьбу с болезнями, в свободное от работы время они сражаются с совершенно другим заболеванием... Под руководством председателя больницы несколько сотрудников и местных подростков образуют группу наемных убийц, нацеленных на «рак» общества и уничтожающих его, не позволяя беззаконию распространяться.
Страна: Япония
Студия: Xebec
Продолжительность: 00:24:00
Язык: Русский
Перевод: Любительский (многоголосый, закадровый) AniDub
Файл
Качество: HDTVRip
Формат: MP4
Кодек: MPEG-4 AVC
Видео: 1280x720, 23.976 fps, 2300 kbps
Звук: Аудио кодек: AAC
Аудио RUS: 48 kHz, AAC, 2 ch, 192 kbps
Релиз от:
Озвучивание: Студийная Банда AD
Перевод: FooBoo, КИЛД, Гамлетка Цезаревна
Тайминг и работа со звуком: Al'pair

01. Preion of Hell
02. Surgical Strike
03. Midnight Guerrilla
04. Fire Game
05. Sacrifice Idol
06. Galactic on Stage
07. Chaos World
08. Closed Heart Shelter
09. Limit Break
10. How`s the Water?
General
Format : MPEG-4
Format profile : Base Media
Codec ID : isom
File size : 435 MiB
Duration : 24mn 0s
Overall bit rate mode : Variable
Overall bit rate : 2 531 Kbps
Encoded date : UTC 2015-06-14 21:30:12
Tagged date : UTC 2015-06-14 21:30:12
Writing application : Yamb 2.1.0.0
Video
ID : 1
Format : AVC
Format/Info : Advanced Video Codec
Format profile : High@L4.1
Format settings, CABAC : Yes
Format settings, ReFrames : 4 frames
Codec ID : avc1
Codec ID/Info : Advanced Video Coding
Duration : 23mn 59s
Bit rate : 2 336 Kbps
Maximum bit rate : 14.9 Mbps
Width : 1 280 pixels
Height : 720 pixels
Display aspect ratio : 16:9
Frame rate mode : Constant
Frame rate : 23.976 fps
Color space : YUV
Chroma subsampling : 4:2:0
Bit depth : 8 bits
Scan type : Progressive
Bits/(Pixel*Frame) : 0.106
Stream size : 401 MiB (92%)
Title : 264
Writing library : x264 core 129 r2245+729M 1a52e03
Encoding settings : cabac=1 / ref=4 / deblock=1:1:-1 / analyse=0x3:0x113 / me=umh / subme=9 / psy=1 / fade_compensate=0.00 / psy_rd=1.00:0.00 / mixed_ref=1 / me_range=24 / chroma_me=1 / trellis=2 / 8x8dct=1 / cqm=0 / deadzone=21,11 / fast_pskip=1 / chroma_qp_offset=-2 / threads=8 / lookahead_threads=1 / sliced_threads=0 / nr=0 / decimate=1 / interlaced=0 / bluray_compat=0 / constrained_intra=0 / fgo=0 / bframes=9 / b_pyramid=2 / b_adapt=2 / b_bias=0 / direct=1 / weightb=1 / open_gop=0 / weightp=2 / keyint=240 / keyint_min=24 / scenecut=40 / intra_refresh=0 / rc=crf / mbtree=0 / crf=18.0 / qcomp=0.72 / qpmin=0 / qpmax=69 / qpstep=4 / ip_ratio=1.40 / pb_ratio=1.30 / aq=1:0.85
Encoded date : UTC 2015-04-08 18:55:04
Tagged date : UTC 2015-06-14 21:30:17
Color primaries : BT.709
Transfer characteristics : BT.709
Matrix coefficients : BT.709
Audio
ID : 2
Format : AAC
Format/Info : Advanced Audio Codec
Format profile : LC
Codec ID : 40
Duration : 24mn 0s
Bit rate mode : Variable
Bit rate : 192 Kbps
Maximum bit rate : 200 Kbps
Channel(s) : 2 channels
Channel positions : Front: L R
Sampling rate : 48.0 KHz
Compression mode : Lossy
Stream size : 33.0 MiB (8%)
Language : Russian
Encoded date : UTC 2015-06-14 21:30:17
Tagged date : UTC 2015-06-14 21:30:17



   Похожие торренты   Торрент   Размер 
В этой теме нет новых непрочитанных сообщений. Искусственный отбор / Triage X [01-02 из 10] (2014) HDTVRip 720p

14 | 10

763.11 МБ

В этой теме нет новых непрочитанных сообщений. Триаж X / Искусственный отбор / Triage X [TV] [01 из 10] (2015) WEBRip 720p | LE-Production

39 | 15

1.96 ГБ

В этой теме нет новых непрочитанных сообщений. Триаж X / Искусственный отбор / Triage X [TV] [01 из 10] (2015) WEBRip 720p | LE-Production

32 | 5

1001.29 МБ

В этой теме нет новых непрочитанных сообщений. Триаж X / Искусственный отбор / Triage X [TV] [01 из 10] (2015) WEBRip 720p | LE-Production

38 | 6

333.72 МБ

В этой теме нет новых непрочитанных сообщений. Шанецкая - Сергей Белоусов. Роботы, искусственный интеллект и 3D принтеры. [19.10] (2015) HDTVRip 720p

15 | 4

476.82 МБ

В этой теме нет новых непрочитанных сообщений. Отбор / The Culling (2015) WEB-DL 720p | L1

498 | 57

2.69 ГБ

В этой теме нет новых непрочитанных сообщений. Моя история!! / Ore Monogatari!! [01-13 из 24] (2015) HDTVRip 720p | AniDub

26 | 18

3.61 ГБ




Вы не можете начинать темы
Вы не можете отвечать на сообщения
Вы не можете редактировать свои сообщения
Вы не можете удалять свои сообщения
Вы не можете добавлять вложения

Перейти:  
Для Мосгорсуда, Роскомнадзора и рекламодателей: mosgorsud-torrent[собачка]yandex.ru
 Вход
ppkBB3cker v.2 © 2008-2014 @ PPK
[ Time : 0.600s | 15 Queries | GZIP : Off ]

Торрент трекер RUTOR.IN, Не можете зайти на rutor.org? Какой новый адрес рутор? Какое зеркало рутор? Не работает rutor.org и зеркала? Тогда наш торрент специально для вас. Rutor.in неофициальное зеркало rutor. В случае если у Вас заблокирован rutor или вдруг Вы не можете на него зайти, то Вы без труда сможете скачать бесплатно и без рекламы последние новинки кино, игр, сериалов и прочего у нас, на Rutor.in. Не нужно использовать прокси, чтобы зайти на рутор, достаточно воспользоваться нашим ресурсом. Все новые фильмы, игры, сериалы, книги и музыка за 2013 и 2014 годы через торрент бесплатно. Скачивайте фильмы в хорошем качестве, игры для пк, xbox, playstation без регистрации. У нас вы найдете новые Зарубежные сериалы и Русские сериалы 2013, 2014, 2015 годов. Оставайтесь с нами, качайте любимые фильмы, игры, сериалы, книги и музыку.
cron