img image001 image001 image001 image001 image001 image001 image001 image001 image001 image001 image001 image001 image001 image001 image001

Planets Sun Sun Sun
Статистика раздачи
Автор: Nickolas3434 | Размер: 5.05 ГБ | Добавлен: 03 июл 2015
Раздают: 190    Качают: 9
Скачать торрент
Скачать торрент
Описание торрента

СообщениеДобавлено: 03 июл 2015 

Тетрадь смерти — Переписывание: Наследники L / Death Note Rewrite: L’s Successors (2008) HDTV [720p-LQ] от SDIncorporation | Russian Subtitles

Информация о фильме
Русское название: Тетрадь смерти — Переписывание: Наследники L
Оригинальное название: Death Note Rewrite: L’s Successors
Страна: Япония
Студия: Madhouse
Год выпуска: 2008
Жанр: Детектив, Криминал, Драма, мистика
Перевод: субтитры
Режиссер: Араки Тэцуро
Работа над релизом: Nod33Eset(retvil)
Jonny_NAT
69SexyMan
StreetDespair
Исходник: CCTV 2013 Год
О фильме:
Death Note Rewrite: L’s Successors (Тетрадь смерти — Переписывание: Наследники L) — вторая специальная версия аниме сериала Death Note, представляющая собой компиляцию последних 12 серий с дополнением нескольких сцен. Этот фильм начинается с 10-минутного монолога L, в котором он рассказывает всё, что знает о Кире. В этом фильме некоторые сюжетные линии опущены или изменены.


Продолжительность: 01:33:18
Качество видео: HDTV 720p-LQ
Видеокодек: AVC
Формат: MKV
Битрейт видео: ~7200 Kbps
Размер кадра: 1280x720
Аудиокодек: AC3
Битрейт аудио: 384 kbps
Аудио #1: Японский ( 48 kHz, AC3 Dolby Digital, 2 channels, ~384 kbps) — [Japanese]
Субтитры: Russian Subtitles


General
Unique ID : 210434836122544838993297940482663422577 (0x9E50467504C6A2928D745CE714009A71)
Complete name : Death.Note.Rewrite.L.s.Successors.HDTV720p.Japanese.SDIncorporation.mkv
Format : Matroska
Format version : Version 4 / Version 2
File size : 5.05 GiB
Duration : 1h 33mn
Overall bit rate : 7 752 Kbps
Movie name : Death Note Rewrite L’s Successors [720p-LQ] (Japanese) © SDIncorporation
Encoded date : UTC 2015-07-01 15:24:12
Writing application : mkvmerge v8.1.0 ('Psychedelic Postcard') 64bit
Writing library : libebml v1.3.1 + libmatroska v1.4.2
DURATION : 01:32:56.840000000
NUMBER_OF_FRAMES : 1035
NUMBER_OF_BYTES : 63147
_STATISTICS_WRITING_APP : mkvmerge v8.1.0 ('Psychedelic Postcard') 64bit
_STATISTICS_WRITING_DATE_UT : 2015-07-01 15:24:12
_STATISTICS_TAGS : BPS DURATION NUMBER_OF_FRAMES NUMBER_OF_BYTES
Video
ID : 1
Format : AVC
Format/Info : Advanced Video Codec
Format profile : Main@L3.1
Format settings, CABAC : Yes
Format settings, ReFrames : 1 frame
Codec ID : V_MPEG4/ISO/AVC
Duration : 1h 33mn
Bit rate : 7 213 Kbps
Nominal bit rate : 3 000 Kbps
Width : 1 280 pixels
Height : 720 pixels
Display aspect ratio : 16:9
Frame rate mode : Constant
Frame rate : 29.970 fps
Original frame rate : 30.000 fps
Color space : YUV
Chroma subsampling : 4:2:0
Bit depth : 8 bits
Scan type : Progressive
Bits/(Pixel*Frame) : 0.261
Stream size : 4.70 GiB (93%)
Writing library : x264 core 133 r2334 a3ac64b
Encoding settings : cabac=0 / ref=3 / deblock=1:0:0 / analyse=0x3:0x113 / me=umh / subme=9 / psy=1 / psy_rd=1.00:0.00 / mixed_ref=1 / me_range=32 / chroma_me=1 / trellis=0 / 8x8dct=1 / cqm=0 / deadzone=21,11 / fast_pskip=0 / chroma_qp_offset=-2 / threads=12 / lookahead_threads=1 / sliced_threads=0 / nr=0 / decimate=1 / interlaced=0 / bluray_compat=0 / constrained_intra=0 / bframes=3 / b_pyramid=0 / b_adapt=2 / b_bias=0 / direct=3 / weightb=0 / open_gop=0 / weightp=0 / keyint=250 / keyint_min=25 / scenecut=40 / intra_refresh=0 / rc_lookahead=40 / rc=2pass / mbtree=1 / bitrate=3000 / ratetol=1.0 / qcomp=0.60 / qpmin=0 / qpmax=69 / qpstep=4 / cplxblur=20.0 / qblur=0.5 / vbv_maxrate=9500 / vbv_bufsize=9500 / nal_hrd=none / ip_ratio=1.40 / aq=1:1.00
Language : English
Default : Yes
Forced : No
Audio
ID : 2
Format : AC-3
Format/Info : Audio Coding 3
Mode extension : CM (complete main)
Format settings, Endianness : Big
Codec ID : A_AC3
Duration : 1h 33mn
Bit rate mode : Constant
Bit rate : 384 Kbps
Channel(s) : 2 channels
Channel positions : Front: L R
Sampling rate : 48.0 KHz
Bit depth : 16 bits
Compression mode : Lossy
Stream size : 256 MiB (5%)
Title : Japanese
Language : Japanese
Default : Yes
Forced : No
Text
ID : 3
Format : UTF-8
Codec ID : S_TEXT/UTF8
Codec ID/Info : UTF-8 Plain Text
Title : Russian Subtitles
Language : Russian
Default : Yes
Forced : No


Время раздачи: С 8:00 до 22:00
Релиз от: ©SDIncorporation



   Похожие торренты   Торрент   Размер 
В этой теме нет новых непрочитанных сообщений. Тетрадь смерти: Глазами Бога / Death Note Rewrite: The Visualizing God (2007) HDTV 720p от SDIncorporation | Sub

219 | 110

7.06 ГБ

В этой теме нет новых непрочитанных сообщений. Тетрадь смерти / Death Note [01-37 из 37] (2006) HDTV 720p от SDIncorporation | Mega-Anime

999 | 315

18.03 ГБ

В этой теме нет новых непрочитанных сообщений. Тетрадь смерти / Death Note (2006) [01-15,18-21,23-24 из 37] HDTVRip 720p от SDIncorporation | P

8 | 11

9.28 ГБ

В этой теме нет новых непрочитанных сообщений. Тетрадь смерти / Death Note (2006) [01-12,14-15,18-19 из 37] HDTVRip 720p от SDIncorporation | P

6 | 12

7.24 ГБ

В этой теме нет новых непрочитанных сообщений. Тетрадь смерти / Death Note [01-12, 14 из 37] (2006) HDTVRip 720p от SDIncorporation | P

3 | 6

5.99 ГБ

В этой теме нет новых непрочитанных сообщений. Тетрадь смерти / Death Note [01-11 из 37] (2006) HDTVRip 720p от SDIncorporation | P

10 | 5

5.19 ГБ

В этой теме нет новых непрочитанных сообщений. Тетрадь смерти / Death Note (2006) [01-12 из 37] HDTVRip 720p от SDIncorporation | P

2 | 7

5.6 ГБ




Вы не можете начинать темы
Вы не можете отвечать на сообщения
Вы не можете редактировать свои сообщения
Вы не можете удалять свои сообщения
Вы не можете добавлять вложения

Перейти:  
Для Мосгорсуда, Роскомнадзора и рекламодателей: mosgorsud-torrent[собачка]yandex.ru
 Вход
ppkBB3cker v.2 © 2008-2014 @ PPK
[ Time : 6.423s | 14 Queries | GZIP : Off ]

Торрент трекер RUTOR.IN, Не можете зайти на rutor.org? Какой новый адрес рутор? Какое зеркало рутор? Не работает rutor.org и зеркала? Тогда наш торрент специально для вас. Rutor.in неофициальное зеркало rutor. В случае если у Вас заблокирован rutor или вдруг Вы не можете на него зайти, то Вы без труда сможете скачать бесплатно и без рекламы последние новинки кино, игр, сериалов и прочего у нас, на Rutor.in. Не нужно использовать прокси, чтобы зайти на рутор, достаточно воспользоваться нашим ресурсом. Все новые фильмы, игры, сериалы, книги и музыка за 2013 и 2014 годы через торрент бесплатно. Скачивайте фильмы в хорошем качестве, игры для пк, xbox, playstation без регистрации. У нас вы найдете новые Зарубежные сериалы и Русские сериалы 2013, 2014, 2015 годов. Оставайтесь с нами, качайте любимые фильмы, игры, сериалы, книги и музыку.