img image001 image001 image001 image001 image001 image001 image001 image001 image001 image001 image001 image001 image001 image001 image001

Planets Sun Sun Sun
Статистика раздачи
Автор: Nickolas3434 | Размер: 1.41 ГБ | Добавлен: 07 июл 2015
Раздают: 66    Качают: 4
Скачать торрент
Скачать торрент
Описание торрента

СообщениеДобавлено: 07 июл 2015 

Сад изящных слов / The Garden of Words / Kotonoha no Niwa (2013) BDRip-AVC
от HQCLUB

Информация о фильме:
Название: Сад изящных слов
Оригинальное название: Koto no ha no niwa
Год выхода: 2013
Жанр: аниме, мультфильм, мелодрама
Режиссер: Макото Синкай / Makoto Shinkai
В ролях: Ирино Мию, Кана Ханадзава, Фуми Хирано, Гоу Маэда, Юка Тэрасаки, Сугуру Иноэ
О фильме: Юноша по имени Такао встречает таинственную молодую женщину. Их случайные и как будто ни к чему не ведущие встречи в парке, где Такао прогуливает занятия, работая над достижением своей странной мечты — посвятить жизнь конструированию и изготовлению обуви — повторяются снова и снова… правда, только в ненастные дни. Сердца героев начинают приоткрываться друг другу, но на это нужно время, а впереди уже маячит конец сезона дождей…
«Этот дождь пахнет небом»


Релиз от -
Автор рипа: Elheym
Выпущено: Япония ‖ CoMix Wave Inc.
Продолжительность: 00:46:03
Перевод 1: Профессиональный (полное дублирование) Reanimedia
Перевод 2: Любительский (двухголосый, закадровый) Zendos & Eladiel
Оригинальная аудиодорожка: японская
Субтитры: русские (полные: Timecraft, Tanner; форсированные)
Главы: присутствуют, сохранены оригинальные
Файл:
Формат: MKV
Качество: BDRip-AVC (источник: Sher Khan GS / Blu-ray Remux [Kotonoha.no.Niwa] / 1080p)
Видео: 1088x612 (16:9), 23.976 fps, MPEG-4 AVC, ~2965 kbps avg, 0.186 bit/pixel
Аудио #1: 48 kHz, AC3 Dolby Digital, 3/2 (L,C,R,l,r) + LFE ch, ~448 kbps avg (DUB.REANIMEDIA)
Аудио #2: 48 kHz, AC3 Dolby Digital, 3/2 (L,C,R,l,r) + LFE ch, ~448 kbps avg (DVO.ZENDOS.&.ELADIEL)
Аудио #3: 48 kHz, AC3 Dolby Digital, 3/2 (L,C,R,l,r) + LFE ch, ~448 kbps avg (JAP)
Сэмпл: скачать

Уникальный идентификатор : 196416856473320018494727665011411556972 (0x93C482B32BDCF8D5BBBA4F678AE29A6C)
Полное имя : Kotonoha.no.Niwa.2013.TRIPLE.BDRip-AVC.x264.AC3.-HQCLUB.mkv
Формат : Matroska
Версия формата : Version 2
Размер файла : 1,41 Гбайт
Продолжительность : 46 м.
Общий поток : 4396 Кбит/сек
Название фильма : Сад изящных слов / The Garden of Words / Kotonoha no Niwa (2013) BDRip-AVC by HQCLUB [Elheym]
Дата кодирования : UTC 2015-07-06 14:57:32
Программа кодирования : mkvmerge v5.2.0 ('I can't explain') built on Dec 18 2011 18:12:03
Библиотека кодирования : libebml v1.2.3 + libmatroska v1.3.0
Attachements : Cover.jpg
Видео
Идентификатор : 1
Формат : AVC
Формат/Информация : Advanced Video Codec
Профиль формата : High@L4
Параметр CABAC формата : Да
Параметр ReFrames формата : 11 кадров
Идентификатор кодека : V_MPEG4/ISO/AVC
Продолжительность : 46 м.
Битрейт : 2965 Кбит/сек
Ширина : 1088 пикселей
Высота : 612 пикселей
Соотношение сторон : 16:9
Режим частоты кадров : Постоянный
Частота кадров : 23,976 кадра/сек
Цветовое пространство : YUV
Субдискретизация насыщенности : 4:2:0
Битовая глубина : 8 бит
Тип развёртки : Прогрессивная
Бит/(Пиксели*Кадры) : 0.186
Размер потока : 977 Мбайт (67%)
Заголовок : Сад изящных слов / The Garden of Words / Kotonoha no Niwa (2013) BDRip-AVC by HQCLUB [Elheym]
Библиотека кодирования : x264 core 146 r0+2586 e393126 t_mod_Custom [8-bit@all X86_64]
Настройки программы : cabac=1 / ref=11 / deblock=1:-1:-1 / analyse=0x3:0x113 / me=umh / subme=11 / psy=1 / fade_compensate=0.00 / psy_rd=0.60:0.00 / mixed_ref=1 / me_range=32 / chroma_me=1 / trellis=2 / 8x8dct=1 / cqm=0 / deadzone=21,11 / fast_pskip=0 / chroma_qp_offset=-2 / threads=6 / lookahead_threads=2 / sliced_threads=0 / nr=0 / decimate=0 / interlaced=0 / bluray_compat=0 / constrained_intra=0 / fgo=0 / bframes=16 / b_pyramid=2 / b_adapt=2 / b_bias=0 / direct=3 / weightb=1 / open_gop=0 / weightp=2 / keyint=240 / keyint_min=23 / scenecut=40 / intra_refresh=0 / rc_lookahead=20 / rc=crf / mbtree=0 / crf=16.5000 / qcomp=0.70 / qpmin=0:0:0 / qpmax=69:69:69 / qpstep=4 / vbv_maxrate=20000 / vbv_bufsize=25000 / crf_max=0.0 / nal_hrd=none / filler=0 / ip_ratio=1.40 / pb_ratio=1.30 / aq=2:0.50 / aq-sensitivity=10.00 / aq-factor=1.00:1.00:1.00 / aq2=0 / aq3=4:[0.50:0.50]:[0.50:0.50]:[0.50:0.50]:[0.50:0.50] / aq3-sensitivity=10.00 / aq3-factor=[1.00:1.00]:[1.00:1.00]:[1.00:1.00] / aq3-boundary=192:64:24 / zones=2144,2278,b=1.38/3486,6021,b=1.38/6166,7000,b=1.38
Язык : Japanese
Default : Да
Forced : Нет
Аудио #1
Идентификатор : 2
Формат : AC-3
Формат/Информация : Audio Coding 3
Расширение режима : CM (complete main)
Параметр Endianness формата : Big
Идентификатор кодека : A_AC3
Продолжительность : 46 м.
Вид битрейта : Постоянный
Битрейт : 448 Кбит/сек
Каналы : 6 каналов
Расположение каналов : Front: L C R, Side: L R, LFE
Частота : 48,0 КГц
Метод сжатия : С потерями
Размер потока : 148 Мбайт (10%)
Заголовок : АС3 5.1 @ 448 kbps - Dub, Reanimedia
Язык : Russian
Default : Нет
Forced : Нет
Аудио #2
Идентификатор : 3
Формат : AC-3
Формат/Информация : Audio Coding 3
Расширение режима : CM (complete main)
Параметр Endianness формата : Big
Идентификатор кодека : A_AC3
Продолжительность : 46 м.
Вид битрейта : Постоянный
Битрейт : 448 Кбит/сек
Каналы : 6 каналов
Расположение каналов : Front: L C R, Side: L R, LFE
Частота : 48,0 КГц
Метод сжатия : С потерями
Размер потока : 148 Мбайт (10%)
Заголовок : АС3 5.1 @ 448 kbps - DVO, Zendos & Eladiel [by Sher Khan]
Язык : Russian
Default : Нет
Forced : Нет
Аудио #3
Идентификатор : 4
Формат : AC-3
Формат/Информация : Audio Coding 3
Расширение режима : CM (complete main)
Параметр Endianness формата : Big
Идентификатор кодека : A_AC3
Продолжительность : 46 м.
Вид битрейта : Постоянный
Битрейт : 448 Кбит/сек
Каналы : 6 каналов
Расположение каналов : Front: L C R, Side: L R, LFE
Частота : 48,0 КГц
Метод сжатия : С потерями
Размер потока : 148 Мбайт (10%)
Заголовок : АС3 5.1 @ 448 kbps - Original
Язык : Japanese
Default : Нет
Forced : Нет
Текст #1
Идентификатор : 5
Формат : ASS
Идентификатор кодека : S_TEXT/ASS
Идентификатор кодека/Информация : Advanced Sub Station Alpha
Метод сжатия : Без потерь
Заголовок : Full, Timecraft
Язык : Russian
Default : Нет
Forced : Нет
Текст #2
Идентификатор : 6
Формат : ASS
Идентификатор кодека : S_TEXT/ASS
Идентификатор кодека/Информация : Advanced Sub Station Alpha
Метод сжатия : Без потерь
Заголовок : Full, Tanner
Язык : Russian
Default : Нет
Forced : Нет
Текст #3
Идентификатор : 7
Формат : ASS
Идентификатор кодека : S_TEXT/ASS
Идентификатор кодека/Информация : Advanced Sub Station Alpha
Метод сжатия : Без потерь
Заголовок : Forced
Язык : Russian
Default : Нет
Forced : Нет
Меню
00:00:00.000 : :Chapter 01
00:05:13.688 : :Chapter 02
00:07:42.253 : :Chapter 03
00:13:08.204 : :Chapter 04
00:18:27.648 : :Chapter 05
00:21:06.098 : :Chapter 06
00:25:17.766 : :Chapter 07
00:29:19.758 : :Chapter 08
00:37:04.889 : :Chapter 09
00:45:01.740 : :Chapter 10

x264 [info]: frame I:506 Avg QP:14.08 size:115635
x264 [info]: frame P:13468 Avg QP:16.32 size: 26354
x264 [info]: frame B:52290 Avg QP:18.36 size: 12235
x264 [info]: consecutive B-frames: 1.7% 1.9% 16.5% 16.0% 12.5% 20.7% 4.2% 4.3% 3.4% 1.6% 3.2% 6.2% 1.6% 1.2% 1.0% 1.3% 2.6%
x264 [info]: ref P L0: 47.0% 4.5% 16.1% 7.8% 5.4% 5.1% 4.0% 2.7% 2.3% 2.4% 2.1% 0.6% 0.0%
x264 [info]: ref B L0: 55.1% 15.2% 9.4% 5.2% 4.3% 3.6% 3.2% 2.2% 1.3% 0.5%
x264 [info]: ref B L1: 86.3% 13.7%

ЦитатаКто-то писал:
Субтитры:
Timecraft (переводчик: AleX_MytH, тайм-код, оформление и QC: DJATOM)
Tanner (перевод: Tanner; редактор: Night)



   Похожие торренты   Торрент   Размер 
В этой теме нет новых непрочитанных сообщений. Сад изящных слов / Сад слов / Kotonoha no Niwa / The Garden of Words (2013) BDRip-720p | D

155 | 44

2.01 ГБ

В этой теме нет новых непрочитанных сообщений. Сад изящных слов / Сад слов / The Garden of Words / Kotonoha no Niwa (2013) BDRip 720p | L1

76 | 5

1.07 ГБ

В этой теме нет новых непрочитанных сообщений. Сад изящных слов / Сад слов / The Garden of Words / Kotonoha no Niwa (2013) BDRip 1080p от NNNB | L2

96 | 4

3.3 ГБ

В этой теме нет новых непрочитанных сообщений. Сад изящных слов / Сад слов / The Garden of Words / Kotonoha no Niwa (2013) BDRemux | D

66 | 3

11.47 ГБ

В этой теме нет новых непрочитанных сообщений. Сад изящных слов / Сад слов / The Garden of Words / Kotonoha no Niwa (2013) BDRemux | L2

46 | 11

15.48 ГБ

В этой теме нет новых непрочитанных сообщений. Сад изящных слов / The Garden of Words / Kotonoha no Niwa (2013) BDRip-AVC | L2

155 | 5

1.02 ГБ

В этой теме нет новых непрочитанных сообщений. Сад изящных слов / The Garden of Words / Kotonoha no Niwa (2013) BDRip 720p | L1

46 | 8

1.07 ГБ




Вы не можете начинать темы
Вы не можете отвечать на сообщения
Вы не можете редактировать свои сообщения
Вы не можете удалять свои сообщения
Вы не можете добавлять вложения

Перейти:  
Для Мосгорсуда, Роскомнадзора и рекламодателей: mosgorsud-torrent[собачка]yandex.ru
 Вход
ppkBB3cker v.2 © 2008-2014 @ PPK
[ Time : 0.047s | 15 Queries | GZIP : Off ]

cron