img image001 image001 image001 image001 image001 image001 image001 image001 image001 image001 image001 image001 image001 image001 image001

Planets Sun Sun Sun
Статистика раздачи
Автор: Nickolas3434 | Размер: 3.88 ГБ | Добавлен: 11 июл 2015, 18:35
Раздают: 474    Качают: 123
Скачать торрент
Скачать торрент
Описание торрента

СообщениеДобавлено: 11 июл 2015, 18:35 


Информация о фильме
Название: Ямада и семь ведьм
Оригинальное название: Yamada-kun to 7-nin no Majo
Год выхода: 2015
Жанр: комедия, школа, этти, романтика
Режиссер: Такуно Сэйки
Художник: Токуда Тосиюки, Идзуми Хиро
В ролях: Осака Рёта, Хаями Саори, Масуда Тосики, Утида Маая, Китамура Эри, Ханадзава Кана, Макино Юй, Такао Юки, Юки Аой, Тадзава Масуми
О фильме:
Всем известный хулиган Рю Ямада как-то столкнулся на лестнице с «заучкой» Урарой Сирайси – и случилось странное: ребята поменялись телами. Когда шок прошел, оба поняли, что в обмене есть свои плюсы, к тому же ради него не нужно исполнять жуткие кульбиты – достаточно просто поцеловаться. И вот хулиган с мозгом гения начал исправлять оценки, пугая учителей, а красавица-отличница с душой рубахи-парня быстро улучшила отношения с одноклассниками. Сладкую парочку вычислил местный умник Миямура – но не стал их сдавать, а наоборот прикрыл, предложив вместе восстановить забытый клуб оккультизма!
Вот так главные герои познакомились с легендой о семи ведьмах – девушках со сверхъестественными способностями, что встречаются в каждом поколении учеников школы Судзаку. Кто-то из девушек, как Урара, прячет свои способности, кто-то использует к своей выгоде, не забывая, конечно, о маскировке. Ямада же – личность уникальная, ибо через поцелуй может копировать любую способность, а хозяйки дара не могут причинить ему вред. Вскоре из надежных источников пришла весть, что собрав вместе семерых ведьм, можно провести ритуал и получить в итоге нечто невероятное – а иначе зачем было клуб возрождать?!
© Hollow, World Art
Страна: Япония
Студия: Liden Films
Продолжительность: 00:24:00
Язык: Русский
Перевод: Любительский (двухголосый, закадровый) AniDub
Файл
Качество: HDTVRip
Формат: MP4
Кодек: x264
Видео: 1280x720, 23.976 fps, 1550 kbps
Звук: Аудио кодек: AAC
Аудио RUS: 48.0 kHz, AAC, 2 ch, 165 kbps
Релиз от:
Озвучивание: JAM, Nika Lenina
Перевод: FooBoo
Тайминг и работа со звуком: Felix

01. I`ve Turned Into Her!
02. Kiss Me, Okay?
03. Will You Accept? Or Won`t You?
04. It Looks Like I`ve Fallen For Yamada!
05. You Mustn`t Kiss Her, Okay?
06. Respond!
07. Anything But Tempura!
08. You`re So Annoying.
09. Be Sure to Change the Future.
10. Please Go Out with Me!
11. What Did You Do with Shiraishi?!
12. I Love You, Shiraishi!
General
Format : MPEG-4
Format profile : Base Media
Codec ID : isom
File size : 301 MiB
Duration : 24mn 29s
Overall bit rate mode : Variable
Overall bit rate : 1 716 Kbps
Encoded date : UTC 2015-04-21 18:08:33
Tagged date : UTC 2015-04-21 18:08:33
Writing application : Yamb 2.1.0.0
Video
ID : 1
Format : AVC
Format/Info : Advanced Video Codec
Format profile : High@L4.1
Format settings, CABAC : Yes
Format settings, ReFrames : 4 frames
Codec ID : avc1
Codec ID/Info : Advanced Video Coding
Duration : 24mn 29s
Bit rate : 1 546 Kbps
Maximum bit rate : 12.2 Mbps
Width : 1 280 pixels
Height : 720 pixels
Display aspect ratio : 16:9
Frame rate mode : Constant
Frame rate : 23.976 fps
Color space : YUV
Chroma subsampling : 4:2:0
Bit depth : 8 bits
Scan type : Progressive
Bits/(Pixel*Frame) : 0.070
Stream size : 271 MiB (90%)
Title : 264
Writing library : x264 core 129 r2245+729M 1a52e03
Encoding settings : cabac=1 / ref=4 / deblock=1:1:-1 / analyse=0x3:0x113 / me=umh / subme=9 / psy=1 / fade_compensate=0.00 / psy_rd=1.00:0.00 / mixed_ref=1 / me_range=24 / chroma_me=1 / trellis=2 / 8x8dct=1 / cqm=0 / deadzone=21,11 / fast_pskip=1 / chroma_qp_offset=-2 / threads=8 / lookahead_threads=1 / sliced_threads=0 / nr=0 / decimate=1 / interlaced=0 / bluray_compat=0 / constrained_intra=0 / fgo=0 / bframes=9 / b_pyramid=2 / b_adapt=2 / b_bias=0 / direct=1 / weightb=1 / open_gop=0 / weightp=2 / keyint=240 / keyint_min=24 / scenecut=40 / intra_refresh=0 / rc=crf / mbtree=0 / crf=18.0 / qcomp=0.72 / qpmin=0 / qpmax=69 / qpstep=4 / ip_ratio=1.40 / pb_ratio=1.30 / aq=1:0.85
Encoded date : UTC 2015-04-13 03:33:26
Tagged date : UTC 2015-04-21 18:08:46
Color primaries : BT.709
Transfer characteristics : BT.709
Matrix coefficients : BT.709
Audio
ID : 2
Format : AAC
Format/Info : Advanced Audio Codec
Format profile : LC
Codec ID : 40
Duration : 24mn 29s
Duration_FirstFrame : 64ms
Bit rate mode : Variable
Bit rate : 165 Kbps
Maximum bit rate : 204 Kbps
Channel(s) : 2 channels
Channel positions : Front: L R
Sampling rate : 48.0 KHz
Compression mode : Lossy
Stream size : 29.0 MiB (10%)
Language : Russian
Encoded date : UTC 2015-04-21 18:08:43
Tagged date : UTC 2015-04-21 18:08:46



   Похожие торренты   Торрент   Размер 
В этой теме нет новых непрочитанных сообщений. Ямада: Самурай Нагасама / Ямада: Самурай из Аютии / Yamada: The Samurai of Ayothaya (2010) HDRip от RG Orient Extreme | P

188 | 19

2.16 ГБ

В этой теме нет новых непрочитанных сообщений. Наши соседи - семья Ямада / Houhokekyo Tonari no Yamada-kun (1999) BDRip 1080p | P, L1

50 | 7

7.08 ГБ

В этой теме нет новых непрочитанных сообщений. Ямада: Самурай Нагасама / Yamada: The Samurai of Ayothaya / Samurai Ayothaya (2010) HDTVRip-AVC

77 | 8

2.36 ГБ

В этой теме нет новых непрочитанных сообщений. Моя история!! / Ore Monogatari!! [01-24 из 24] (2015) HDTVRip 720p | AniDub

48 | 35

6.61 ГБ

В этой теме нет новых непрочитанных сообщений. Шестое чувство / Re-Kan! [01-13 из 13] (2015) HDTVRip 720p | AniDub

325 | 16

4.32 ГБ

В этой теме нет новых непрочитанных сообщений. Моя история!! / Ore Monogatari!! [01-09 из 24] (2015) HDTVRip 720p | AniDub

45 | 41

2.52 ГБ

В этой теме нет новых непрочитанных сообщений. Моя история!! / Ore Monogatari!! [01-13 из 24] (2015) HDTVRip 720p | AniDub

26 | 18

3.61 ГБ




Вы не можете начинать темы
Вы не можете отвечать на сообщения
Вы не можете редактировать свои сообщения
Вы не можете удалять свои сообщения
Вы не можете добавлять вложения

Перейти:  
Для Мосгорсуда, Роскомнадзора и рекламодателей: mosgorsud-torrent[собачка]yandex.ru
Настройки
ppkBB3cker v.2 © 2008-2014 @ PPK
[ Time : 0.024s | 16 Queries | GZIP : Off ]
CGP [Extreme] output time : 0.00019s | 0 Queries | GZIP : Off

Торрент трекер RUTOR.IN, Не можете зайти на rutor.org? Какой новый адрес рутор? Какое зеркало рутор? Не работает rutor.org и зеркала? Тогда наш торрент специально для вас. Rutor.in неофициальное зеркало rutor. В случае если у Вас заблокирован rutor или вдруг Вы не можете на него зайти, то Вы без труда сможете скачать бесплатно и без рекламы последние новинки кино, игр, сериалов и прочего у нас, на Rutor.in. Не нужно использовать прокси, чтобы зайти на рутор, достаточно воспользоваться нашим ресурсом. Все новые фильмы, игры, сериалы, книги и музыка за 2013 и 2014 годы через торрент бесплатно. Скачивайте фильмы в хорошем качестве, игры для пк, xbox, playstation без регистрации. У нас вы найдете новые Зарубежные сериалы и Русские сериалы 2013, 2014, 2015 годов. Оставайтесь с нами, качайте любимые фильмы, игры, сериалы, книги и музыку.