img image001 image001 image001 image001 image001 image001 image001 image001 image001 image001 image001 image001 image001 image001 image001

Planets Sun Sun Sun
Статистика раздачи
Автор: Nickolas3434 | Размер: 3.61 ГБ | Добавлен: 24 июл 2015
Раздают: 26    Качают: 18
Скачать торрент
Скачать торрент
Описание торрента

СообщениеДобавлено: 24 июл 2015 

Моя история!! / Ore Monogatari!! / My Love Story!!

Перевод: Любительский (многоголосый) Shina, BalFor, Cuba77
Субтитры: отсутствуют
Хардсаб: отсутствует
Формат: HDTVRip, MP4, H.264, AAC
Страна: Япония
Режиссер: Асака Морио
Жанр: комедия, романтика, сёдзё
Продолжительность: ТВ (24 эп.), 25 мин.
Год выпуска: 2015
Перевод на русский: Cuba77, Наталия Ишова
Озвучка: Shina, BalFor, Cuba77
Описание: Такео Гоуда — новоиспеченный старшеклассник. Вот только не похож он на привлекательного стройного юношу, каждое мгновение «весны юности» которому в радость. Совсем не похож. Большой и грустный, неприглядный на лицо, Такео сравним разве что с двухметровым шкафом, забавно вышагивающим по тротуару. А тут еще и лучший друг, Макото Сунакава, как на зло, писаный красавец, у которого от девчонок отбоя нет. Главный герой еще в раннем детстве понял, что своему другу не соперник. Слишком уж часто приглянувшиеся ему девочки при первой возможности убегали открывать свои невинные девичьи сердца Суне, которые тот обычно разбивал холодно и решительно, при этом умудряясь быть язвительным и бестактным. К такому порядку вещей Такео привык давно. И даже смог найти в громадном неповоротливом теле место для столь же громадной доброй души, благодаря которой одним будничным утром спас маленькое милое чудо по имени Ринко Ямато.
Качество: HDTVRip 720p
Видео: 1280x720 (16:9), 23.976 fps, MPEG4 Video (H264), High@L4.1 ~ 1681 kbps, 0.076 bit/pixel
Аудио: 48.0KHz, AAC, 2ch, ~ 192Kbps avg
Общее
Полное имя : C:[AniDub]_Ore_Monogatari!!_[720p]_[Shina_BalFor_Cuba77][AniDub]_Ore_Monogatari!!_[01]_[720p]_[Shina_BalFor_Cuba77].mp4
Формат : MPEG-4
Профиль формата : Base Media
Идентификатор кодека : isom
Размер файла : 309 Мбайт
Продолжительность : 23 м.
Режим общего битрейта : Переменный
Общий поток : 1877 Кбит/сек
Дата кодирования : UTC 2015-04-09 21:21:30
Дата пометки : UTC 2015-04-09 21:21:30
Программа кодирования : Yamb 2.1.0.0 [http://yamb.unite-video.com]
Видео
Идентификатор : 1
Формат : AVC
Формат/Информация : Advanced Video Codec
Профиль формата : High@L4.1
Параметр CABAC формата : Да
Параметр ReFrames формата : 4 кадра
Идентификатор кодека : avc1
Идентификатор кодека/Информация : Advanced Video Coding
Продолжительность : 23 м.
Битрейт : 1681 Кбит/сек
Максимальный битрейт : 10,0 Мбит/сек
Ширина : 1280 пикселей
Высота : 720 пикселей
Соотношение сторон : 16:9
Режим частоты кадров : Постоянный
Частота кадров : 23,976 кадра/сек
Цветовое пространство : YUV
Субдискретизация насыщенности : 4:2:0
Битовая глубина : 8 бит
Тип развёртки : Прогрессивная
Бит/(Пиксели*Кадры) : 0.076
Размер потока : 277 Мбайт (90%)
Заголовок : 264
Библиотека кодирования : x264 core 129 r2245+729M 1a52e03
Настройки программы : cabac=1 / ref=4 / deblock=1:1:-1 / analyse=0x3:0x113 / me=umh / subme=9 / psy=1 / fade_compensate=0.00 / psy_rd=1.00:0.00 / mixed_ref=1 / me_range=24 / chroma_me=1 / trellis=2 / 8x8dct=1 / cqm=0 / deadzone=21,11 / fast_pskip=1 / chroma_qp_offset=-2 / threads=8 / lookahead_threads=1 / sliced_threads=0 / nr=0 / decimate=1 / interlaced=0 / bluray_compat=0 / constrained_intra=0 / fgo=0 / bframes=9 / b_pyramid=2 / b_adapt=2 / b_bias=0 / direct=1 / weightb=1 / open_gop=0 / weightp=2 / keyint=240 / keyint_min=24 / scenecut=40 / intra_refresh=0 / rc=crf / mbtree=0 / crf=18.5 / qcomp=0.72 / qpmin=0 / qpmax=69 / qpstep=4 / ip_ratio=1.40 / pb_ratio=1.30 / aq=1:0.85
Дата кодирования : UTC 2015-04-09 03:32:09
Дата пометки : UTC 2015-04-09 21:21:49
Основные цвета : BT.709
Характеристики трансфера : BT.709
Коэффициенты матрицы : BT.709
colour_range : Limited
Аудио
Идентификатор : 2
Формат : AAC
Формат/Информация : Advanced Audio Codec
Профиль формата : LC
Идентификатор кодека : 40
Продолжительность : 22 м.
Вид битрейта : Переменный
Битрейт : 192 Кбит/сек
Максимальный битрейт : 200 Кбит/сек
Каналы : 2 канала
Расположение каналов : Front: L R
Частота : 48,0 КГц
Метод сжатия : С потерями
Размер потока : 31,6 Мбайт (10%)
Язык : Russian
Дата кодирования : UTC 2015-04-09 21:21:49
Дата пометки : UTC 2015-04-09 21:21:49
01. My Story
02. My Love
03. My Blue Ogre
04. My Boyfriend
05. I`m Dense




   Похожие торренты   Торрент   Размер 
В этой теме нет новых непрочитанных сообщений. Моя история!! / Ore Monogatari!! [01-09 из 24] (2015) HDTVRip 720p | AniDub

45 | 41

2.52 ГБ

В этой теме нет новых непрочитанных сообщений. Моя история!! / Ore Monogatari!! [01-24 из 24] (2015) HDTVRip 720p | AniDub

48 | 35

6.61 ГБ

В этой теме нет новых непрочитанных сообщений. Моя история!! / Ore Monogatari!! / My Love Story!! [01-06 из 24] (2015) HDTVRip 720p | AniDub

15 | 19

1.71 ГБ

В этой теме нет новых непрочитанных сообщений. Моя история!! / Ore Monogatari!! / My Love Story!! [01-05 из 24] (2015) HDTVRip 720p | AniDub

13 | 8

1.45 ГБ

В этой теме нет новых непрочитанных сообщений. Моя история! / Ore Monogatari!! [01 из 24] (2015) WEBRip 720p | AniFilm

6 | 2

1.99 ГБ

В этой теме нет новых непрочитанных сообщений. Моя история! / Ore Monogatari!! [01 из 24] (2015) WEBRip 720p | AniFilm

7 | 3

338.14 МБ

В этой теме нет новых непрочитанных сообщений. Моя история! / Ore Monogatari!! [01 из 24] (2015) WEBRip 720p | AniFilm

7 | 7

676.39 МБ




Вы не можете начинать темы
Вы не можете отвечать на сообщения
Вы не можете редактировать свои сообщения
Вы не можете удалять свои сообщения
Вы не можете добавлять вложения

Перейти:  
Для Мосгорсуда, Роскомнадзора и рекламодателей: mosgorsud-torrent[собачка]yandex.ru
 Вход
ppkBB3cker v.2 © 2008-2014 @ PPK
[ Time : 0.597s | 17 Queries | GZIP : Off ]

Торрент трекер RUTOR.IN, Не можете зайти на rutor.org? Какой новый адрес рутор? Какое зеркало рутор? Не работает rutor.org и зеркала? Тогда наш торрент специально для вас. Rutor.in неофициальное зеркало rutor. В случае если у Вас заблокирован rutor или вдруг Вы не можете на него зайти, то Вы без труда сможете скачать бесплатно и без рекламы последние новинки кино, игр, сериалов и прочего у нас, на Rutor.in. Не нужно использовать прокси, чтобы зайти на рутор, достаточно воспользоваться нашим ресурсом. Все новые фильмы, игры, сериалы, книги и музыка за 2013 и 2014 годы через торрент бесплатно. Скачивайте фильмы в хорошем качестве, игры для пк, xbox, playstation без регистрации. У нас вы найдете новые Зарубежные сериалы и Русские сериалы 2013, 2014, 2015 годов. Оставайтесь с нами, качайте любимые фильмы, игры, сериалы, книги и музыку.
cron