img image001 image001 image001 image001 image001 image001 image001 image001 image001 image001 image001 image001 image001 image001 image001

Planets Sun Sun Sun
Статистика раздачи
Автор: Nickolas3434 | Размер: 7.02 ГБ | Добавлен: 27 июл 2015
Раздают: 63    Качают: 24
Скачать торрент
Скачать торрент
Описание торрента

СообщениеДобавлено: 27 июл 2015 


Информация о фильме
Название: Прекрасный библиотекарь
Оригинальное название: Daitoshokan no Hitsujikai
Год выхода: 2014
Жанр: романтика, комедия, этти
Режиссер: Нобута Ю
Художник: Икэда Сигэми, Окубо Сюити, Маруяма Юкико, Минэта Ёсими, Такаяма Хатидай
В ролях: Мадзима Дзюндзи, Ёнэдзава Мадока, Сайто Юка, Ямамото Нодзоми, Сэндай Эри, Танэдзаки Ацуми, Морикубо Сётаро, Накадзима Саки, Сато Рина, Тайти Ё, Касиваги Мию, Кусуноки Тайтэн
О фильме:
17-летний Кётаро Какэй искренне верит, что несовершенство мира можно победить, если не грешить самому и познать все на свете. Именно для этого он учится в огромной академии Сиоми, где собираются юные таланты со всей Японии. А вот ровесница Какэя, скромная и застенчивая Цугуми Сирасаки, считает, что достичь счастья можно, лишь помогая другим, пускай придется ломать собственный характер. Такие интересные ребята не могли не встретиться – ведь Судьба существует, а помогают ей таинственные Пастыри, что, по легендам, базируются где-то в библиотеке академии.
Пастыри не правят людьми, а дают советы, которым, однако, лучше следовать. На дворе – новое время, и общаются они с избранниками как через старомодные видения, так и путем современной электронной почты. В общем, начинания главных героев, собравших своих друзей в новый библиотечный клуб, были поддержаны свыше. С такими покровителями не страшна даже президент Совета Махо Мотидзуки, у которой, похоже, свои виды на красавчика Кётаро. Одно другому не мешает, главное – не потерять чудесную закладку, что когда-то вручил Какэю незнакомец в шляпе!
© Hollow, World Art
Страна: Япония
Студия: Hoods Entertainment, Felix Film
Продолжительность: 00:24:00
Язык: Русский, Японский
Перевод: Любительский (двухголосый, закадровый)
Файл
Качество: BDRip
Формат: MKV
Кодек: x264 (10bit)
Видео: 1280x720, 23.976 fps, 3200 kbps
Звук: Аудио кодек: AC3, Vorbis
Аудио RUS: 48.0 kHz, AC3, 2 ch, 192 kbps - SHIZA Project
Аудио RUS: 48.0 kHz, AC3, 2 ch, 192 kbps - AniDub
Аудио JAP: 48.0 kHz, Vorbis, 2 ch, 256 kbps
Субтитры: русские (встроенные только надписи, ASS), русские (встроенные полный перевод, ASS)
Релиз от:
Озвучивание: Snowly, Aska
Тайминг и работа со звуком: M1nta
Релиз от:
Озвучивание: FruKt, Гамлетка Цезаревна
Перевод: Gerale
Тайминг и работа со звуком: 41ый, Demons94, Alden

01. Создание библиотечного клуба
02. Бюро находок
03. Одинокая поющая принцесса
04. Новый библиотечный клуб
05. Правда, скрывающаяся за сообщением
06. Магическая библиотека
07. Воскресенье
08. Магическая книга
09. Выбор поющей принцессы
10. Исповедь
11. Решение
12. Хороший библиотекарь, что хороший пастырь
General
Format : Matroska
Format version : Version 4 / Version 2
File size : 794 MiB
Duration : 23mn 42s
Overall bit rate mode : Variable
Overall bit rate : 4 681 Kbps
Encoded date : UTC 2015-07-25 18:56:57
Writing application : mkvmerge v7.1.0 ('Good Love') 64bit built on Jul 27 2014 13:06:55
Writing library : libebml v1.3.0 + libmatroska v1.4.1
DURATION : 00:23:42.304000000
NUMBER_OF_FRAMES : 44447
NUMBER_OF_BYTES : 34135296
_STATISTICS_WRITING_APP : mkvmerge v7.1.0 ('Good Love') 64bit built on Jul 27 2014 13:06:55
_STATISTICS_WRITING_DATE_UTC : 2015-07-25 18:56:57
_STATISTICS_TAGS : BPS DURATION NUMBER_OF_FRAMES NUMBER_OF_BYTES
Video
ID : 1
Format : AVC
Format/Info : Advanced Video Codec
Format profile : High 10@L4.1
Format settings, CABAC : Yes
Format settings, ReFrames : 9 frames
Codec ID : V_MPEG4/ISO/AVC
Duration : 23mn 42s
Bit rate : 3 948 Kbps
Width : 1 280 pixels
Height : 720 pixels
Display aspect ratio : 16:9
Frame rate mode : Constant
Frame rate : 23.976 fps
Color space : YUV
Chroma subsampling : 4:2:0
Bit depth : 10 bits
Scan type : Progressive
Bits/(Pixel*Frame) : 0.179
Stream size : 669 MiB (84%)
Writing library : x264 core 132 r2309 3b1f1f7
Encoding settings : cabac=1 / ref=9 / deblock=1:-2:-2 / analyse=0x3:0x133 / me=umh / subme=9 / psy=1 / psy_rd=0.90:0.00 / mixed_ref=1 / me_range=24 / chroma_me=1 / trellis=2 / 8x8dct=1 / cqm=0 / deadzone=21,11 / fast_pskip=1 / chroma_qp_offset=-2 / threads=12 / lookahead_threads=2 / sliced_threads=0 / nr=0 / decimate=0 / interlaced=0 / bluray_compat=0 / constrained_intra=0 / bframes=8 / b_pyramid=2 / b_adapt=2 / b_bias=0 / direct=1 / weightb=1 / open_gop=0 / weightp=2 / keyint=250 / keyint_min=23 / scenecut=40 / intra_refresh=0 / rc=crf / mbtree=0 / crf=15.7 / qcomp=0.70 / qpmin=9 / qpmax=40 / qpstep=4 / ip_ratio=1.40 / pb_ratio=1.30 / aq=1:0.90
Language : Japanese
Default : No
Forced : No
DURATION : 00:23:42.296000000
NUMBER_OF_FRAMES : 34101
NUMBER_OF_BYTES : 716525628
_STATISTICS_WRITING_APP : mkvmerge v7.1.0 ('Good Love') 64bit built on Jul 27 2014 13:06:55
_STATISTICS_WRITING_DATE_UTC : 2015-07-25 18:56:57
_STATISTICS_TAGS : BPS DURATION NUMBER_OF_FRAMES NUMBER_OF_BYTES
Audio #1
ID : 2
Format : AC-3
Format/Info : Audio Coding 3
Mode extension : CM (complete main)
Format settings, Endianness : Big
Codec ID : A_AC3
Duration : 23mn 42s
Bit rate mode : Constant
Bit rate : 192 Kbps
Channel(s) : 2 channels
Channel positions : Front: L R
Sampling rate : 48.0 KHz
Bit depth : 16 bits
Compression mode : Lossy
Stream size : 32.6 MiB (4%)
Title : Snowly & Aska (SHIZA Project)
Language : Russian
Default : Yes
Forced : No
Audio #2
ID : 3
Format : AC-3
Format/Info : Audio Coding 3
Mode extension : CM (complete main)
Format settings, Endianness : Big
Codec ID : A_AC3
Duration : 23mn 42s
Bit rate mode : Constant
Bit rate : 192 Kbps
Channel(s) : 2 channels
Channel positions : Front: L R
Sampling rate : 48.0 KHz
Bit depth : 16 bits
Compression mode : Lossy
Stream size : 32.6 MiB (4%)
Title : FruKt & Гамлетка Цезаревна (AniDub)
Language : Russian
Default : No
Forced : No
Audio #3
ID : 4
Format : Vorbis
Format settings, Floor : 1
Codec ID : A_VORBIS
Duration : 23mn 42s
Bit rate mode : Variable
Bit rate : 256 Kbps
Channel(s) : 2 channels
Sampling rate : 48.0 KHz
Compression mode : Lossy
Stream size : 43.4 MiB (5%)
Title : Original
Writing library : libVorbis (Schaufenugget) (20101101 (Schaufenugget))
Language : Japanese
Default : No
Forced : No
Text #1
ID : 5
Format : ASS
Codec ID : S_TEXT/ASS
Codec ID/Info : Advanced Sub Station Alpha
Compression mode : Lossless
Title : Надписи
Language : Russian
Default : No
Forced : No
Text #2
ID : 6
Format : ASS
Codec ID : S_TEXT/ASS
Codec ID/Info : Advanced Sub Station Alpha
Compression mode : Lossless
Title : Полные субтитры
Language : Russian
Default : Yes
Forced : No



   Похожие торренты   Торрент   Размер 
В этой теме нет новых непрочитанных сообщений. Прекрасный воин Сейлор Мун. Кристалл / Bishoujo Senshi Sailor Moon Crystal [ONA] [01-04 из 26] (2014) BDRip 720p | LE-Production

5 | 19

3.39 ГБ

В этой теме нет новых непрочитанных сообщений. Библиотекарь: Трилогия / The Librarian: Trilogy (2004-2008) BDRip 720p

245 | 66

14.33 ГБ

В этой теме нет новых непрочитанных сообщений. Прекрасный сон / The Perfect Sleep (2009) BDRip 720p | P1

32 | 5

4.36 ГБ

В этой теме нет новых непрочитанных сообщений. Один прекрасный день / One Fine Day (1996) BDRip 720p от Leonardo | P

65 | 8

4.37 ГБ

В этой теме нет новых непрочитанных сообщений. Прекрасный воин Сейлор Мун. Кристалл / Bishoujo Senshi Sailor Moon Crystal [ONA] [01-06 из 26] (2014) WEBRip 720p | LE-Production

38 | 25

2.58 ГБ

В этой теме нет новых непрочитанных сообщений. Прекрасный воин Сейлор Мун. Кристалл / Bishoujo Senshi Sailor Moon Crystal [ONA] [01-03 из 26] (2014) WEBRip 720p | LE-Production

49 | 20

1.29 ГБ

В этой теме нет новых непрочитанных сообщений. Прекрасный воин Сейлор Мун. Кристалл / Bishoujo Senshi Sailor Moon Crystal [ONA] [01-02 из 26] (2014) WEBRip 720p | LE-Production

24 | 8

868.91 МБ




Вы не можете начинать темы
Вы не можете отвечать на сообщения
Вы не можете редактировать свои сообщения
Вы не можете удалять свои сообщения
Вы не можете добавлять вложения

Перейти:  
Для Мосгорсуда, Роскомнадзора и рекламодателей: mosgorsud-torrent[собачка]yandex.ru
 Вход
ppkBB3cker v.2 © 2008-2014 @ PPK
[ Time : 0.037s | 16 Queries | GZIP : Off ]

Торрент трекер RUTOR.IN, Не можете зайти на rutor.org? Какой новый адрес рутор? Какое зеркало рутор? Не работает rutor.org и зеркала? Тогда наш торрент специально для вас. Rutor.in неофициальное зеркало rutor. В случае если у Вас заблокирован rutor или вдруг Вы не можете на него зайти, то Вы без труда сможете скачать бесплатно и без рекламы последние новинки кино, игр, сериалов и прочего у нас, на Rutor.in. Не нужно использовать прокси, чтобы зайти на рутор, достаточно воспользоваться нашим ресурсом. Все новые фильмы, игры, сериалы, книги и музыка за 2013 и 2014 годы через торрент бесплатно. Скачивайте фильмы в хорошем качестве, игры для пк, xbox, playstation без регистрации. У нас вы найдете новые Зарубежные сериалы и Русские сериалы 2013, 2014, 2015 годов. Оставайтесь с нами, качайте любимые фильмы, игры, сериалы, книги и музыку.