img image001 image001 image001 image001 image001 image001 image001 image001 image001 image001 image001 image001 image001 image001 image001

Planets Sun Sun Sun
Статистика раздачи
Автор: Nickolas3434 | Размер: 1.46 ГБ | Добавлен: 02 авг 2015
Раздают: 97    Качают: 30
Скачать торрент
Скачать торрент
Описание торрента

СообщениеДобавлено: 02 авг 2015 


Профессор Лейтон и Дива Вечности / Professor Layton and the Eternal Diva / Layton Kyouju to Eien no Utahime
Страна: Япония
Год выпуска: 2010 г.
Жанр: приключения
Тип: Movie
Продолжительность: полнометражный фильм, 100 мин.
Режиссер: Хасимото Масакадзу
Студия: P.A. Works
Описание:
Хершель Лейтон - известный археолог и университетский профессор, а ещё он настоящий джентельмен и любитель загадок. Поэтому его частенько просят о помощи, когда полиция заходит в тупик. Одним утром к нему пришло письмо от бывшей студентки, а ныне оперной дивы - Дженис Кейтли. Девушка рассказала, что её подруга Милена, умершая год назад от неизлечимой болезни, неожиданно вернулась к жизни... в образе 7-летней девочки. Приехав на премьеру новой оперы ради того, чтобы встретится с Дженис и выяснить подробности, Лейтон и его помощник - Люк, оказались втянутыми в странную игру на выживание, победителю которой заггадочный Ведущий пообещал бессмертие. Но так ли это...
Доп. информация:
Профессор Лейтон» — известная серия квестов, у которой более 7 300 000 поклонников по всему миру. Этот фильм - экранизация первого приключения профессора Лейтона и его ученика, Люка — «Профессор Лейтон и Призрачная Мелодия».
Релиз GSGroup

Качество: BDRip
Тип релиза: Без хардсаба
Формат видео: MKV
Релиз/Автор рипа: GSG
Совместимость с бытовыми HD плеерами: Да
Видео: x264, 1280x720, 23.976 fps, ~1720 Kbps, 8 bits.
Аудио 1: AC-3. 192 Kbps. 48.0 KHz. 2 channels. Язык Русский (в составе контейнера) ; Озвучка: женская одноголосая: Persona99
Аудио 2: AC-3. 192 Kbps. 48.0 KHz. 6 channels. Язык Японский ; Озвучка 2: оригинал
Субтитры: srt встроенные в составе контейнера Язык субтитров русский ; Перевод: Nachtwandler & tina
Код:
General
Unique ID                                : 216147778469442590217916972715726509186 (0xA29C8C42F569A5FF913C6225181E9482)
Complete name                            : Professor Layton and the Eternal Diva.2009.[Persona99].BD720.rus.jpn.mkv
Format                                   : Matroska
Format version                           : Version 2
File size                                : 1.46 GiB
Duration                                 : 1h 39mn
Overall bit rate                         : 2 103 Kbps
Encoded date                             : UTC 2015-08-02 12:22:05
Writing application                      : mkvmerge v4.0.0 ('The Stars were mine') built on Jun  6 2010 16:18:42
Writing library                          : libebml v1.0.0 + libmatroska v1.0.0
Video
ID                                       : 1
Format                                   : AVC
Format/Info                              : Advanced Video Codec
Format profile                           : High@L4.1
Format settings, CABAC                   : Yes
Format settings, ReFrames                : 4 frames
Codec ID                                 : V_MPEG4/ISO/AVC
Duration                                 : 1h 39mn
Bit rate                                 : 1 720 Kbps
Maximum bit rate                      : 16.6 Mbps
Width                                    : 1 280 pixels
Height                                   : 720 pixels
Display aspect ratio                     : 16:9
Frame rate mode                          : Constant
Frame rate                               : 23.976 fps
Color space                              : YUV
Chroma subsampling                       : 4:2:0
Bit depth                                : 8 bits
Scan type                                : Progressive
Bits/(Pixel*Frame)                       : 0.078
Stream size                              : 1.16 GiB (80%)
Title                                    : GSG
Writing library                          : x264 core 146 r2538 121396c
Encoding settings                        : cabac=1 / ref=4 / deblock=1:1:1 / analyse=0x3:0x113 / me=umh / subme=6 / psy=1 / psy_rd=1.00:0.00 / mixed_ref=1 / me_range=16 / chroma_me=1 / trellis=1 / 8x8dct=1 / cqm=0 / deadzone=21,11 / fast_pskip=1 / chroma_qp_offset=-2 / threads=6 / lookahead_threads=1 / sliced_threads=0 / nr=0 / decimate=1 / interlaced=0 / bluray_compat=0 / constrained_intra=0 / bframes=3 / b_pyramid=0 / b_adapt=1 / b_bias=0 / direct=3 / weightb=0 / open_gop=0 / weightp=2 / keyint=240 / keyint_min=23 / scenecut=40 / intra_refresh=0 / rc_lookahead=40 / rc=2pass / mbtree=1 / bitrate=1720 / ratetol=1.0 / qcomp=0.60 / qpmin=10 / qpmax=51 / qpstep=4 / cplxblur=20.0 / qblur=0.5 / vbv_maxrate=50000 / vbv_bufsize=50000 / nal_hrd=none / filler=0 / ip_ratio=1.40 / aq=1:0.00
Default                                  : Yes
Forced                                   : No
Audio #1
ID                                       : 2
Format                                   : AC-3
Format/Info                              : Audio Coding 3
Mode extension                           : CM (complete main)
Format settings, Endianness              : Big
Codec ID                                 : A_AC3
Duration                                 : 1h 39mn
Bit rate mode                            : Constant
Bit rate                                 : 192 Kbps
Channel(s)                               : 2 channels
Channel positions                        : Front: L R
Sampling rate                            : 48.0 KHz
Bit depth                                : 16 bits
Compression mode                         : Lossy
Stream size                              : 136 MiB (9%)
Title                                    : Persona99 AC-3 2.0
Language                                 : Russian
Default                                  : Yes
Forced                                   : No
Audio #2
ID                                       : 3
Format                                   : AC-3
Format/Info                              : Audio Coding 3
Mode extension                           : CM (complete main)
Format settings, Endianness              : Big
Codec ID                                 : A_AC3
Duration                                 : 1h 39mn
Bit rate mode                            : Constant
Bit rate                                 : 192 Kbps
Channel(s)                               : 6 channels
Channel positions                        : Front: L C R, Side: L R, LFE
Sampling rate                            : 48.0 KHz
Bit depth                                : 16 bits
Compression mode                         : Lossy
Stream size                              : 136 MiB (9%)
Title                                    : AC-3 6 channels 192 Kbps
Language                                 : Japanese
Default                                  : No
Forced                                   : No
Text
ID                                       : 4
Format                                   : UTF-8
Codec ID                                 : S_TEXT/UTF8
Codec ID/Info                            : UTF-8 Plain Text
Title                                    : srt
Language                                 : Russian
Default                                  : No
Forced                                   : No
 


Семпл: https://yadi.sk/i/iF4ES8eqiDwJr



   Похожие торренты   Торрент   Размер 
В этой теме нет новых непрочитанных сообщений. Профессор Лейтон и Бессмертная дива / Eiga Reiton-kyôju to eien no utahime (2009) BDRip от HQ-ViDEO

42 | 4

1.46 ГБ

В этой теме нет новых непрочитанных сообщений. Чокнутый профессор / The Nutty Professor (1963) BDRip от Generalfilm

46 | 4

1.46 ГБ

В этой теме нет новых непрочитанных сообщений. Чокнутый профессор / The Nutty Professor (1963) BDRip от HQCLUB

37 | 8

2.18 ГБ

В этой теме нет новых непрочитанных сообщений. Чокнутый профессор / The Nutty Professor (1996) BDRip 1080p | P, A

32 | 13

8.65 ГБ

В этой теме нет новых непрочитанных сообщений. Чокнутый профессор / The Nutty Professor (1996) BDRip-AVC от New-Team

102 | 15

744.46 МБ

В этой теме нет новых непрочитанных сообщений. Чокнутый профессор / The Nutty Professor (1996) BDRip 720p от MediaClub | P, P2, A

31 | 32

7.02 ГБ

В этой теме нет новых непрочитанных сообщений. Дива / Diva (1981) DVDRip от FilmRus | P

84 | 32

1.45 ГБ




Вы не можете начинать темы
Вы не можете отвечать на сообщения
Вы не можете редактировать свои сообщения
Вы не можете удалять свои сообщения
Вы не можете добавлять вложения

Перейти:  
Для Мосгорсуда, Роскомнадзора и рекламодателей: mosgorsud-torrent[собачка]yandex.ru
 Вход
ppkBB3cker v.2 © 2008-2014 @ PPK
[ Time : 0.022s | 14 Queries | GZIP : Off ]

Торрент трекер RUTOR.IN, Не можете зайти на rutor.org? Какой новый адрес рутор? Какое зеркало рутор? Не работает rutor.org и зеркала? Тогда наш торрент специально для вас. Rutor.in неофициальное зеркало rutor. В случае если у Вас заблокирован rutor или вдруг Вы не можете на него зайти, то Вы без труда сможете скачать бесплатно и без рекламы последние новинки кино, игр, сериалов и прочего у нас, на Rutor.in. Не нужно использовать прокси, чтобы зайти на рутор, достаточно воспользоваться нашим ресурсом. Все новые фильмы, игры, сериалы, книги и музыка за 2013 и 2014 годы через торрент бесплатно. Скачивайте фильмы в хорошем качестве, игры для пк, xbox, playstation без регистрации. У нас вы найдете новые Зарубежные сериалы и Русские сериалы 2013, 2014, 2015 годов. Оставайтесь с нами, качайте любимые фильмы, игры, сериалы, книги и музыку.