img image001 image001 image001 image001 image001 image001 image001 image001 image001 image001 image001 image001 image001 image001 image001

Planets Sun Sun Sun
Статистика раздачи
Автор: Nickolas3434 | Размер: 17.63 ГБ | Добавлен: 12 авг 2015
Раздают: 26    Качают: 5
Скачать торрент
Скачать торрент
Описание торрента

СообщениеДобавлено: 12 авг 2015 

Ангелы cмерти / Burst Angel / Bakuretsu tenshi (2004) BDRip 720p
от HQCLUB

Информация о фильме:
Название: Ангелы cмерти
Оригинальное название: Bakuretsu tenshi
Жанр: фантастика, боевик, приключения, комедия, меха, этти
Год выпуска: 2004
Тип: ТВ
Режиссер: Койчи Охата
В ролях: Акено Ватанабе, Моника Риал, Мегуми Тойогучи, Джэми Марчини, Риэ Танака, Кларин Харп, Микако Такахаши, Alison Retzloff, Грег Эйрс, Р. Брюс Эллиотт
О фильме: Будущее, год 20XX. Токио все больше погружается в хаос преступности и жестокости. Чтобы хоть как-то сохранить порядок, правительство разрешает обычным гражданам носить оружие. Но даже специально созданное полицейское спецподразделение РАПТ не в силах защитить людей, живущих в постоянном страхе. Кто может спасти раздираемый насилием, обреченный город? Только ангелы.
И тут они являются — Ангелы смерти, четыре юных и прекрасных девушки: Джо, Мег, Сей, Эмми. Они — единственная надежда, которая есть у жителей города…
«The good, the bad and the beautiful»


Релиз от -
Энкод: Elheym
Выпущено: Япония ‖ G.D.H., Gonzo Digimation, Imagica Corp., Media Factory, TV Asahi
Студия: (Gonzo)
Продолжительность: 24 эпизода по ~24 мин.
Перевод 1: Профессиональный (многоголосый, закадровый) R5
Перевод 2: Профессиональный (полное дублирование) английский
Оригинальная аудиодорожка: японская
Субтитры: русские (полные: R5), английские (полные, форсированные)
Главы: присутствуют, сохранены оригинальные
Файл:
Формат: MKV
Качество: BDRip 720p (источник: / Blu-ray Remux [Burst.Angel.2004.1080p.BD-Remux.Episodes.01-24.HDCLUB] / 1080p)
Видео: 1280*x720 (16:9), 23.976 fps, MPEG-4 AVC, ~3000 kbps avg, 8 бит
Аудио #1: 48 kHz, AC3 Dolby Digital, 2/0 (L,R) ch, ~192 kbps avg (MVO.R5)
Аудио #2: 48 kHz, AC3 Dolby Digital, 3/2 (L,C,R,l,r) + LFE ch, ~640 kbps avg (ENG.DUB)
Аудио #3: 48 kHz, AC3 Dolby Digital, 3/2 (L,C,R,l,r) + LFE ch, ~640 kbps avg (JAP)
Сэмпл: скачать

Уникальный идентификатор : 216805595711472076942814950990292079726 (0xA31B3D27D6C38AE2B7039C19972E546E)
Полное имя : Bakuretsu.tenshi.2004.720p.BluRay.Rus.Eng.Jap\01. Hell is Coming Silently.mkv
Формат : Matroska
Версия формата : Version 2
Размер файла : 752 Мбайт
Продолжительность : 23 м.
Общий поток : 4476 Кбит/сек
Название фильма : Ангелы cмерти / Burst Angel / Bakuretsu tenshi (2004) BDRip 720p by Elheym [HQCLUB]
Дата кодирования : UTC 2015-07-31 20:14:14
Программа кодирования : mkvmerge v5.2.0 ('I can't explain') built on Dec 18 2011 18:12:03
Библиотека кодирования : libebml v1.2.3 + libmatroska v1.3.0
Видео
Идентификатор : 1
Формат : AVC
Формат/Информация : Advanced Video Codec
Профиль формата : High@L4.1
Параметр CABAC формата : Да
Параметр ReFrames формата : 9 кадров
Идентификатор кодека : V_MPEG4/ISO/AVC
Продолжительность : 23 м.
Битрейт : 3000 Кбит/сек
Ширина : 1280 пикселей
Высота : 720 пикселей
Соотношение сторон : 16:9
Режим частоты кадров : Постоянный
Частота кадров : 23,976 кадра/сек
Цветовое пространство : YUV
Субдискретизация насыщенности : 4:2:0
Битовая глубина : 8 бит
Тип развёртки : Прогрессивная
Бит/(Пиксели*Кадры) : 0.136
Размер потока : 490 Мбайт (65%)
Заголовок : Ангелы cмерти / Burst Angel / Bakuretsu tenshi (2004) BDRip 720p by Elheym [HQCLUB]
Библиотека кодирования : x264 core 146 r0+2586 e393126 t_mod_Custom [8-bit@all X86_64]
Настройки программы : cabac=1 / ref=9 / deblock=1:-1:-1 / analyse=0x3:0x113 / me=umh / subme=11 / psy=1 / fade_compensate=0.00 / psy_rd=0.60:0.00 / mixed_ref=1 / me_range=32 / chroma_me=1 / trellis=2 / 8x8dct=1 / cqm=0 / deadzone=21,11 / fast_pskip=0 / chroma_qp_offset=-2 / threads=6 / lookahead_threads=2 / sliced_threads=0 / nr=0 / decimate=0 / interlaced=0 / bluray_compat=0 / constrained_intra=0 / fgo=0 / bframes=13 / b_pyramid=2 / b_adapt=2 / b_bias=0 / direct=3 / weightb=1 / open_gop=0 / weightp=2 / keyint=240 / keyint_min=23 / scenecut=40 / intra_refresh=0 / rc_lookahead=40 / rc=2pass / mbtree=0 / bitrate=3000 / ratetol=1.0 / qcomp=0.80 / qpmin=0:0:0 / qpmax=69:69:69 / qpstep=4 / cplxblur=20.0 / qblur=0.5 / vbv_maxrate=50000 / vbv_bufsize=62500 / nal_hrd=none / filler=0 / ip_ratio=1.40 / pb_ratio=1.30 / aq=2:0.50 / aq-sensitivity=18.00 / aq-factor=1.00:1.00:1.00 / aq2=0 / aq3=0
Язык : Japanese
Default : Да
Forced : Нет
Аудио #1
Идентификатор : 2
Формат : AC-3
Формат/Информация : Audio Coding 3
Профиль формата : Dolby Digital
Расширение режима : CM (complete main)
Параметр Endianness формата : Big
Идентификатор кодека : A_AC3
Продолжительность : 23 м.
Вид битрейта : Постоянный
Битрейт : 192 Кбит/сек
Каналы : 2 канала
Расположение каналов : Front: L R
Частота : 48,0 КГц
Метод сжатия : С потерями
Размер потока : 32,3 Мбайт (4%)
Заголовок : АС3 2.0 @ 192 kbps - MVO, R5
Язык : Russian
Default : Нет
Forced : Нет
Аудио #2
Идентификатор : 3
Формат : AC-3
Формат/Информация : Audio Coding 3
Расширение режима : CM (complete main)
Параметр Endianness формата : Big
Идентификатор кодека : A_AC3
Продолжительность : 23 м.
Вид битрейта : Постоянный
Битрейт : 640 Кбит/сек
Каналы : 6 каналов
Расположение каналов : Front: L C R, Side: L R, LFE
Частота : 48,0 КГц
Метод сжатия : С потерями
Размер потока : 108 Мбайт (14%)
Заголовок : АС3 5.1 @ 640 kbps - Dub
Язык : English
Default : Нет
Forced : Нет
Аудио #3
Идентификатор : 4
Формат : AC-3
Формат/Информация : Audio Coding 3
Расширение режима : CM (complete main)
Параметр Endianness формата : Big
Идентификатор кодека : A_AC3
Продолжительность : 23 м.
Вид битрейта : Постоянный
Битрейт : 640 Кбит/сек
Каналы : 6 каналов
Расположение каналов : Front: L C R, Side: L R, LFE
Частота : 48,0 КГц
Метод сжатия : С потерями
Размер потока : 108 Мбайт (14%)
Заголовок : АС3 5.1 @ 640 kbps - Original
Язык : Japanese
Default : Нет
Forced : Нет
Текст #1
Идентификатор : 5
Формат : ASS
Идентификатор кодека : S_TEXT/ASS
Идентификатор кодека/Информация : Advanced Sub Station Alpha
Метод сжатия : Без потерь
Заголовок : Full
Язык : Russian
Default : Нет
Forced : Нет
Текст #2
Идентификатор : 6
Формат : ASS
Идентификатор кодека : S_TEXT/ASS
Идентификатор кодека/Информация : Advanced Sub Station Alpha
Метод сжатия : Без потерь
Заголовок : Full
Язык : English
Default : Нет
Forced : Нет
Текст #3
Идентификатор : 7
Формат : ASS
Идентификатор кодека : S_TEXT/ASS
Идентификатор кодека/Информация : Advanced Sub Station Alpha
Метод сжатия : Без потерь
Заголовок : Forced
Язык : English
Default : Нет
Forced : Нет
Меню
00:00:00.000 : :Chapter 01
00:01:52.570 : :Chapter 02
00:03:19.990 : :Chapter 03
00:10:50.066 : :Chapter 04
00:21:42.968 : :Chapter 05
00:23:14.017 : :Chapter 06

x264 [info]: frame I:271 Avg QP:12.77 size:117232
x264 [info]: frame P:9323 Avg QP:16.38 size: 32571
x264 [info]: frame B:24216 Avg QP:17.38 size: 7998
x264 [info]: consecutive B-frames: 6.3% 5.7% 15.7% 24.4% 14.1% 23.0% 4.1% 2.5% 0.7% 0.2% 0.9% 1.3% 0.7% 0.4%
x264 [info]: ref P L0: 47.6% 4.0% 19.8% 7.3% 6.2% 4.8% 4.3% 2.6% 2.6% 0.9% 0.0%
x264 [info]: ref B L0: 65.7% 14.7% 7.2% 4.1% 3.1% 2.8% 1.7% 0.8%
x264 [info]: ref B L1: 91.9% 8.1%

ЦитатаКто-то писал:

* - т.к. исходный видеоряд является не абсолютным 16:9, на протяжении всех серий наблюдается варьирующийся кроп, то, соответственно, разрешение также меняется, в диапазоне 12(70-80)х720.



   Похожие торренты   Торрент   Размер 
В этой теме нет новых непрочитанных сообщений. Багровые реки 2: Ангелы апокалипсиса / Les rivieres pourpres II (2004) BDRip от HQ-ViDEO

61 | 6

1.46 ГБ

В этой теме нет новых непрочитанных сообщений. Любовь ангела / Мои дождливые дни / Tenshi no koi / My Rainy Days (2009) BDRip 720p

24 | 7

6.35 ГБ

В этой теме нет новых непрочитанных сообщений. Багровые реки 2: Ангелы апокалипсиса / Les rivieres pourpres II - Les anges de l'apocalypse (2004) BDRip

10 | 2

4.89 ГБ

В этой теме нет новых непрочитанных сообщений. Багровые реки 2: Ангелы апокалипсиса / Les rivières pourpres II - Les anges de l'apocalypse (2004) BDRip

24 | 7

1.46 ГБ

В этой теме нет новых непрочитанных сообщений. Черный ангел / Kuro no tenshi Vol. 1 / Black Angel (1997) BDRip 720p от MediaClub | P1

178 | 63

3.63 ГБ

В этой теме нет новых непрочитанных сообщений. Багровые реки 2: Ангелы апокалипсиса / Les rivières pourpres II - Les anges de l'apocalypse (2004) BDRip от New-Team

172 | 22

744.63 МБ

В этой теме нет новых непрочитанных сообщений. Багровые реки 2: Ангелы апокалипсиса / Les rivières pourpres II - Les anges de l'apocalypse (2004) BDRip 1080p

60 | 12

4.37 ГБ




Вы не можете начинать темы
Вы не можете отвечать на сообщения
Вы не можете редактировать свои сообщения
Вы не можете удалять свои сообщения
Вы не можете добавлять вложения

Перейти:  
Для Мосгорсуда, Роскомнадзора и рекламодателей: mosgorsud-torrent[собачка]yandex.ru
 Вход
ppkBB3cker v.2 © 2008-2014 @ PPK
[ Time : 0.044s | 14 Queries | GZIP : Off ]

Торрент трекер RUTOR.IN, Не можете зайти на rutor.org? Какой новый адрес рутор? Какое зеркало рутор? Не работает rutor.org и зеркала? Тогда наш торрент специально для вас. Rutor.in неофициальное зеркало rutor. В случае если у Вас заблокирован rutor или вдруг Вы не можете на него зайти, то Вы без труда сможете скачать бесплатно и без рекламы последние новинки кино, игр, сериалов и прочего у нас, на Rutor.in. Не нужно использовать прокси, чтобы зайти на рутор, достаточно воспользоваться нашим ресурсом. Все новые фильмы, игры, сериалы, книги и музыка за 2013 и 2014 годы через торрент бесплатно. Скачивайте фильмы в хорошем качестве, игры для пк, xbox, playstation без регистрации. У нас вы найдете новые Зарубежные сериалы и Русские сериалы 2013, 2014, 2015 годов. Оставайтесь с нами, качайте любимые фильмы, игры, сериалы, книги и музыку.