img image001 image001 image001 image001 image001 image001 image001 image001 image001 image001 image001 image001 image001 image001 image001

Planets Sun Sun Sun
Статистика раздачи
Автор: Nickolas3434 | Размер: 547.14 МБ | Добавлен: 15 авг 2015
Раздают: 21    Качают: 4
Скачать торрент
Скачать торрент
Описание торрента

СообщениеДобавлено: 15 авг 2015 


Информация о фильме
Название : Слушайтесь папу!
Оригинальное название : Papa no Iukoto o Kikinasai! / パパのいうことを聞きなさい!
Год выхода : 2013-2015
Жанр : Комедия
Режиссер : Кавасаки Ицуро
Описание : Бонус к эксклюзивному ограниченному изданию 13-го и 18-го томов ранобэ.
Страна : Япония
Производство : FEEL
Продолжительность : 2 эпизода по ~25 минут
Перевод: Субтитры
Русские субтитры: YakuSub Studio
Перевод: SeshaRim
Редакция: Aero
Лирика: mbillika
Оформление: Helge
Автор рипа : ReinForce
Файл
Формат видео : MKV
Качество : DVDRip
Видео: AVC, 852x480 (16:9), 1387 kbps, 23.976 fps, 8bit
Аудио: Японский, AC3, 256 Кбит/с, 48.0 Hz, 2 ch (в составе контейнера)
Субтитры 1(ASS): Русские (в составе контейнера)
Субтитры 2(ASS): Английские (в составе контейнера)


General
Unique ID : 197079753344462618907735009716734316365 (0x94442E09FC183194B86689BB7BF4CF4D)
Complete name : E:/Torrent_2/Papa no Iukoto o Kikinasai! OVA 1-2 (DVDRip, AVC 480p, SUB [Rus Eng])/Papa no Iukoto o Kikinasai! - OVA.mkv
Format : Matroska
Format version : Version 2
File size : 303 MiB
Duration : 25mn 16s
Overall bit rate : 1 676 Kbps
Encoded date : UTC 2015-08-12 15:14:43
Writing application : mkvmerge v5.5.0 ('Healer') built on Apr 6 2012 21:43:24
Writing library : libebml v1.2.3 + libmatroska v1.3.0
Attachment : Yes / Yes / Yes / Yes / Yes / Yes / Yes / Yes / Yes / Yes / Импортирован шрифт из [CASO&SumiSora][Papakiki][OVA01][DVDRIP][x264_FLAC][9390FE88].ass / Импортирован шрифт из [CASO&SumiSora][Papakiki][OVA01][DVDRIP][x264_FLAC][9390FE88].ass / Импортирован шрифт из [CASO&SumiSora][Papakiki][OVA01][DVDRIP][x264_FLAC][9390FE88].ass / Импортирован шрифт из [CASO&SumiSora][Papakiki][OVA01][DVDRIP][x264_FLAC][9390FE88].ass / Импортирован шрифт из [CASO&SumiSora][Papakiki][OVA01][DVDRIP][x264_FLAC][9390FE88].ass / Импортирован шрифт из [CASO&SumiSora][Papakiki][OVA01][DVDRIP][x264_FLAC][9390FE88].ass / Импортирован шрифт из [CASO&SumiSora][Papakiki][OVA01][DVDRIP][x264_FLAC][9390FE88].ass / Импортирован шрифт из [CASO&SumiSora][Papakiki][OVA01][DVDRIP][x264_FLAC][9390FE88].ass / Импортирован шрифт из [CASO&SumiSora][Papakiki][OVA01][DVDRIP][x264_FLAC][9390FE88].ass / Импортирован шрифт из [CASO&SumiSora][Papakiki][OVA01][DVDRIP][x264_FLAC][9390FE88].ass / Импортирован шрифт из [CASO&SumiSora][Papakiki][OVA01][DVDRIP][x264_FLAC][9390FE88].ass / Импортирован шрифт из [CASO&SumiSora][Papakiki][OVA01][DVDRIP][x264_FLAC][9390FE88].ass
Video #1
ID : 1
Format : AVC
Format/Info : Advanced Video Codec
Format profile : High@L3.0
Format settings, CABAC : Yes
Format settings, ReFrames : 4 frames
Codec ID : V_MPEG4/ISO/AVC
Duration : 25mn 16s
Bit rate : 1 387 Kbps
Width : 852 pixels
Height : 480 pixels
Display aspect ratio : 16:9
Frame rate mode : Constant
Frame rate : 23.976 fps
Color space : YUV
Chroma subsampling : 4:2:0
Bit depth : 8 bits
Scan type : Progressive
Bits/(Pixel*Frame) : 0.141
Stream size : 251 MiB (83%)
Writing library : x264 core 120
Encoding settings : cabac=1 / ref=4 / deblock=1:-2:-2 / analyse=0x3:0x113 / me=umh / subme=9 / psy=1 / psy_rd=0.70:0.00 / mixed_ref=0 / me_range=32 / chroma_me=1 / trellis=2 / 8x8dct=1 / cqm=0 / deadzone=21,11 / fast_pskip=1 / chroma_qp_offset=-2 / threads=16 / sliced_threads=0 / nr=0 / decimate=1 / interlaced=0 / bluray_compat=0 / constrained_intra=0 / bframes=9 / b_pyramid=2 / b_adapt=2 / b_bias=0 / direct=3 / weightb=1 / open_gop=0 / weightp=2 / keyint=250 / keyint_min=23 / scenecut=40 / intra_refresh=0 / rc_lookahead=40 / rc=crf / mbtree=1 / crf=16.0 / qcomp=0.70 / qpmin=10 / qpmax=20 / qpstep=4 / ip_ratio=1.40 / aq=1:1.00
Language : Japanese
Default : Yes
Forced : No
Audio #2
ID : 2
Format : AC-3
Format/Info : Audio Coding 3
Mode extension : CM (complete main)
Format settings, Endianness : Big
Codec ID : A_AC3
Duration : 25mn 16s
Bit rate mode : Constant
Bit rate : 256 Kbps
Channel(s) : 2 channels
Channel positions : Front: L R
Sampling rate : 48.0 KHz
Bit depth : 16 bits
Compression mode : Lossy
Stream size : 46.3 MiB (15%)
Language : Japanese
Default : Yes
Forced : No
Text #3
ID : 3
Format : ASS
Codec ID : S_TEXT/ASS
Codec ID/Info : Advanced Sub Station Alpha
Compression mode : Lossless
Title : YakuSub Studio
Language : Russian
Default : Yes
Forced : No
Text #4
ID : 4
Format : ASS
Codec ID : S_TEXT/ASS
Codec ID/Info : Advanced Sub Station Alpha
Compression mode : Lossless
Title : English
Language : English
Default : No
Forced : No

Моя максимальная скорость отдачи 100КБ/c





   Похожие торренты   Торрент   Размер 
В этой теме нет новых непрочитанных сообщений. Слушайтесь Папу! / Papa no Iukoto wo Kikinasai [01-12 + Special + OVA] (2012-2013) BDRip 720p | L1

25 | 10

7.22 ГБ

В этой теме нет новых непрочитанных сообщений. Здравствуй, папа / Buongiorno papa (2013) DVDRip | L1

562 | 57

1.37 ГБ

В этой теме нет новых непрочитанных сообщений. Papa Roach - The Best Of Papa Roach - To Be Loved (2010) MP3

50 | 7

112.96 МБ

В этой теме нет новых непрочитанных сообщений. Papa Roach - F.E.A.R. (2015) MP3

1223 | 48

97.53 МБ

В этой теме нет новых непрочитанных сообщений. Papa Roach - F.E.A.R. (2015) MP3

864 | 75

52.89 МБ

В этой теме нет новых непрочитанных сообщений. Мой папа / Mio papà (2014) DVDRip | L1

38 | 27

1.6 ГБ

В этой теме нет новых непрочитанных сообщений. Papa Roach - F.E.A.R. (2015) FLAC

794 | 21

322.63 МБ




Вы не можете начинать темы
Вы не можете отвечать на сообщения
Вы не можете редактировать свои сообщения
Вы не можете удалять свои сообщения
Вы не можете добавлять вложения

Перейти:  
Для Мосгорсуда, Роскомнадзора и рекламодателей: mosgorsud-torrent[собачка]yandex.ru
 Вход
ppkBB3cker v.2 © 2008-2014 @ PPK
[ Time : 0.022s | 14 Queries | GZIP : Off ]

Торрент трекер RUTOR.IN, Не можете зайти на rutor.org? Какой новый адрес рутор? Какое зеркало рутор? Не работает rutor.org и зеркала? Тогда наш торрент специально для вас. Rutor.in неофициальное зеркало rutor. В случае если у Вас заблокирован rutor или вдруг Вы не можете на него зайти, то Вы без труда сможете скачать бесплатно и без рекламы последние новинки кино, игр, сериалов и прочего у нас, на Rutor.in. Не нужно использовать прокси, чтобы зайти на рутор, достаточно воспользоваться нашим ресурсом. Все новые фильмы, игры, сериалы, книги и музыка за 2013 и 2014 годы через торрент бесплатно. Скачивайте фильмы в хорошем качестве, игры для пк, xbox, playstation без регистрации. У нас вы найдете новые Зарубежные сериалы и Русские сериалы 2013, 2014, 2015 годов. Оставайтесь с нами, качайте любимые фильмы, игры, сериалы, книги и музыку.