img image001 image001 image001 image001 image001 image001 image001 image001 image001 image001 image001 image001 image001 image001 image001

Planets Sun Sun Sun
Статистика раздачи
Автор: Nickolas3434 | Размер: 2.91 ГБ | Добавлен: 08 сен 2015
Раздают: 76    Качают: 7
Скачать торрент
Скачать торрент
Описание торрента

СообщениеДобавлено: 08 сен 2015 


Информация о фильме
Название: Письмо для Момо
Оригинальное название: Momo e no tegami
Год выхода: 2011
Жанр: аниме, мультфильм, драма
Режиссер: Хироюки Окиура
В ролях: Карен Мияма, Юка, Дайзабуро Аракава, Тосиюки Нисида, Коити Ямадера, Чо, Йосисага Сакагути, Икуко Тани, Такео Огава, Кота Фудзи
О фильме: Юной Момо предстоит непростое испытание — переехать из Токио в городок на краю страны. Но к ожидаемым и объяснимым трудностям вдруг добавляются совсем странные и, можно сказать, сверхъестественные — в жизнь на тихом острове врываются события, которые и присниться не могли в оживленной столице. Попытка справиться с ними приведет девочку к открытиям, среди которых будет разгадка тайны письма, когда-то написанного отцом — письма всего лишь из двух слов: «Дорогая Момо».

Выпущено: Bandai Visual Company
Продолжительность: 02:00:22
Перевод: Дублированный (лицензия)
Файл
Кодек: x264
Качество: BDRip (источник: Blu-ray Disc)
Видео: 1280x720 (16:9), 23.976 fps, 2565 kbps
Аудио #1: AC-3, 6 ch, 448 kbps (Rus)
Аудио #2: AC-3, 6 ch, 448 kbps (Jpn)
Субтитры: Русские (форс,полные)
Скачать: сэмпл
Скриншоты

Общее
Уникальный идентификатор : 187792614750842610891609046668272131099 (0x8D478AC10F08BB42B606E8F4964ADC1B)
Полное имя : Momo.e.no.tegami.2011.BDRip.720p.Rus.Jpn.mkv
Формат : Matroska
Версия формата : Version 2
Размер файла : 2,91 Гбайт
Продолжительность : 2 ч. 0 м.
Общий поток : 3463 Кбит/сек
Название фильма : Письмо для Момо / Momo e no tegami (2011)
Дата кодирования : UTC 2015-09-06 11:43:59
Программа кодирования : mkvmerge v5.8.0 ('No Sleep / Pillow') built on Sep 2 2012 15:37:04
Библиотека кодирования : libebml v1.2.3 + libmatroska v1.3.0
Видео
Идентификатор : 1
Формат : AVC
Формат/Информация : Advanced Video Codec
Профиль формата : High@L4.1
Параметр CABAC формата : Да
Параметр ReFrames формата : 7 кадров
Идентификатор кодека : V_MPEG4/ISO/AVC
Продолжительность : 2 ч. 0 м.
Битрейт : 2565 Кбит/сек
Ширина : 1280 пикселей
Высота : 720 пикселей
Соотношение сторон : 16:9
Режим частоты кадров : Постоянный
Частота кадров : 23,976 кадра/сек
Цветовое пространство : YUV
Субдискретизация насыщенности : 4:2:0
Битовая глубина : 8 бит
Тип развёртки : Прогрессивная
Бит/(Пиксели*Кадры) : 0.116
Размер потока : 2,10 Гбайт (72%)
Заголовок : Release by AlexKa
Библиотека кодирования : x264 core 148 r2597 e86f3a1
Настройки программы : cabac=1 / ref=7 / deblock=1:0:0 / analyse=0x3:0x133 / me=umh / subme=11 / psy=1 / psy_rd=1.00:0.00 / mixed_ref=1 / me_range=32 / chroma_me=1 / trellis=2 / 8x8dct=1 / cqm=0 / deadzone=21,11 / fast_pskip=0 / chroma_qp_offset=-2 / threads=12 / lookahead_threads=2 / sliced_threads=0 / nr=0 / decimate=0 / interlaced=0 / bluray_compat=0 / constrained_intra=0 / bframes=7 / b_pyramid=2 / b_adapt=2 / b_bias=0 / direct=3 / weightb=1 / open_gop=0 / weightp=2 / keyint=240 / keyint_min=23 / scenecut=40 / intra_refresh=0 / rc=2pass / mbtree=0 / bitrate=2565 / ratetol=1.0 / qcomp=0.60 / qpmin=0 / qpmax=69 / qpstep=4 / cplxblur=20.0 / qblur=0.5 / ip_ratio=1.40 / pb_ratio=1.30 / aq=1:1.00
Язык : Japanese
Аудио #1
Идентификатор : 2
Формат : AC-3
Формат/Информация : Audio Coding 3
Расширение режима : CM (complete main)
Параметр Endianness формата : Big
Идентификатор кодека : A_AC3
Продолжительность : 2 ч. 0 м.
Вид битрейта : Постоянный
Битрейт : 448 Кбит/сек
Каналы : 6 каналов
Расположение каналов : Front: L C R, Side: L R, LFE
Частота : 48,0 КГц
Метод сжатия : С потерями
Размер потока : 386 Мбайт (13%)
Заголовок : Rus
Язык : Russian
Аудио #2
Идентификатор : 3
Формат : AC-3
Формат/Информация : Audio Coding 3
Расширение режима : CM (complete main)
Параметр Endianness формата : Big
Идентификатор кодека : A_AC3
Продолжительность : 2 ч. 0 м.
Вид битрейта : Постоянный
Битрейт : 448 Кбит/сек
Каналы : 6 каналов
Расположение каналов : Front: L C R, Side: L R, LFE
Частота : 48,0 КГц
Метод сжатия : С потерями
Размер потока : 386 Мбайт (13%)
Заголовок : Jpn
Язык : Japanese
Текст #1
Идентификатор : 4
Формат : UTF-8
Идентификатор кодека : S_TEXT/UTF8
Идентификатор кодека/Информация : UTF-8 Plain Text
Заголовок : Rus forced
Язык : Russian
Текст #2
Идентификатор : 5
Формат : UTF-8
Идентификатор кодека : S_TEXT/UTF8
Идентификатор кодека/Информация : UTF-8 Plain Text
Заголовок : Rus
Язык : Russian
Меню
00:00:00.000 : :Chapter 01
00:04:47.578 : :Chapter 02
00:09:05.670 : :Chapter 03
00:17:43.020 : :Chapter 04
00:28:16.152 : :Chapter 05
00:42:33.801 : :Chapter 06
00:52:44.703 : :Chapter 07
01:03:07.325 : :Chapter 08
01:12:23.297 : :Chapter 09
01:20:12.307 : :Chapter 10
01:33:53.294 : :Chapter 11
01:42:46.535 : :Chapter 12
01:47:30.861 : :Chapter 13
01:54:23.773 : :Chapter 14
01:56:13.967 : :Chapter 15
02:00:21.672 : :Chapter 16
x264 [info]: frame I:1316 Avg QP:13.04 size:176730
x264 [info]: frame P:45087 Avg QP:15.68 size: 28621
x264 [info]: frame B:126744 Avg QP:15.57 size: 6253
x264 [info]: consecutive B-frames: 2.1% 7.7% 3.7% 62.0% 6.9% 11.5% 2.5% 3.5%



   Похожие торренты   Торрент   Размер 
В этой теме нет новых непрочитанных сообщений. Письмо для Момо / A Letter to Momo / Momo e no tegami (2011) BDRip 1080p от NNNB

82 | 16

5.76 ГБ

В этой теме нет новых непрочитанных сообщений. Письмо для Момо / Momo e no tegami (2011) BDRip 720p

27 | 3

2.91 ГБ

В этой теме нет новых непрочитанных сообщений. Письмо для Момо / A Letter to Momo / Momo e no Tegami (2011) Blu-Ray Remux (1080p) от HDClub

3 | 15

35.2 ГБ

В этой теме нет новых непрочитанных сообщений. Письмо для Момо / Momo e no Tegami (2011) BDRip-AVC | iPad | P

483 | 25

2.12 ГБ

В этой теме нет новых непрочитанных сообщений. Письмо для Момо / Momo e no tegami (2011) BDRip 1080p

9 | 1

14.6 ГБ

В этой теме нет новых непрочитанных сообщений. Духовный меч Момо / Momo Kyun Sword [TV] [01-09 из 12] (2014) HDTVRip 720p | P

7 | 7

4.37 ГБ

В этой теме нет новых непрочитанных сообщений. Духовный меч Момо / Momo Kyun Sword [TV] [01 из 12] (2014) HDTVRip 720p | P

44 | 11

543.15 МБ




Вы не можете начинать темы
Вы не можете отвечать на сообщения
Вы не можете редактировать свои сообщения
Вы не можете удалять свои сообщения
Вы не можете добавлять вложения

Перейти:  
Для Мосгорсуда, Роскомнадзора и рекламодателей: mosgorsud-torrent[собачка]yandex.ru
 Вход
ppkBB3cker v.2 © 2008-2014 @ PPK
[ Time : 0.030s | 14 Queries | GZIP : Off ]

Торрент трекер RUTOR.IN, Не можете зайти на rutor.org? Какой новый адрес рутор? Какое зеркало рутор? Не работает rutor.org и зеркала? Тогда наш торрент специально для вас. Rutor.in неофициальное зеркало rutor. В случае если у Вас заблокирован rutor или вдруг Вы не можете на него зайти, то Вы без труда сможете скачать бесплатно и без рекламы последние новинки кино, игр, сериалов и прочего у нас, на Rutor.in. Не нужно использовать прокси, чтобы зайти на рутор, достаточно воспользоваться нашим ресурсом. Все новые фильмы, игры, сериалы, книги и музыка за 2013 и 2014 годы через торрент бесплатно. Скачивайте фильмы в хорошем качестве, игры для пк, xbox, playstation без регистрации. У нас вы найдете новые Зарубежные сериалы и Русские сериалы 2013, 2014, 2015 годов. Оставайтесь с нами, качайте любимые фильмы, игры, сериалы, книги и музыку.