img image001 image001 image001 image001 image001 image001 image001 image001 image001 image001 image001 image001 image001 image001 image001

Planets Sun Sun Sun
Статистика раздачи
Автор: Nickolas3434 | Размер: 5.76 ГБ | Добавлен: 08 сен 2015
Раздают: 82    Качают: 16
Скачать торрент
Скачать торрент
Описание торрента

СообщениеДобавлено: 08 сен 2015 


Информация о фильме
    Русское название: Письмо для Момо
    Оригинальное название: A Letter to Momo / Momo e no tegami
    Год выхода: 2011
    Жанр: аниме, мультфильм, драма
    Режиссер: Хироюки Окиура
    Выпущено: Япония
    Продолжительность: 02:00:41
    Перевод: Дублированный
    Роли озвучивали: Карен Мияма, Юка, Дайзабуро Аракава, Тосиюки Нисида, Коити Ямадера, Чо, Йосисага Сакагути, Икуко Тани, Такео Огава, Кота Фудзи


Сюжет фильма
    Юной Момо предстоит непростое испытание — переехать из Токио в городок на краю страны. Но к ожидаемым и объяснимым трудностям вдруг добавляются совсем странные и, можно сказать, сверхъестественные — в жизнь на тихом острове врываются события, которые и присниться не могли в оживленной столице. Попытка справиться с ними приведет девочку к открытиям, среди которых будет разгадка тайны письма, когда-то написанного отцом — письма всего лишь из двух слов: «Дорогая Момо».


Файл
    Качество: BDRip 1080p (исходник Blu-ray Disc)
    Видео: 1920x1080, 5936 Кбит/сек, 23,976 кадр/сек, AVC, x264, High@L4.1, 16:9, 0.119 Бит/[Пиксели*Кадры]
    Аудио 1: AC-3, 448 Кбит/сек, 6 канала(ов), 48,0 КГц - Дублированный / Русский
    Аудио 2: AC-3, 448 Кбит/сек, 6 канала(ов), 48,0 КГц - Оригинал / Японский
    Субтитры: Русские | Полные, Английские | Полные
    Форсированные субтитры: Русские
    Чаптеры (Главы): Есть



Автор Рипа: Сообщество: мы в VK



Format : Matroska
Format version : Version 2
File size : 5.76 GiB
Duration : 2h 0mn
Overall bit rate : 6 835 Kbps
Movie name : Письмо для Момо.(2011).BDRip.1080p.[envy]
Encoded date : UTC 2015-09-06 18:05:32
Writing application : mkvmerge v5.8.0 ('No Sleep / Pillow') built on Sep 2 2012 15:37:04
Writing library : libebml v1.2.3 + libmatroska v1.3.0
Video
ID : 1
Format : AVC
Format/Info : Advanced Video Codec
Format profile : High@L4.1
Format settings, CABAC : Yes
Format settings, ReFrames : 4 frames
Codec ID : V_MPEG4/ISO/AVC
Duration : 2h 0mn
Bit rate : 5 936 Kbps
Width : 1 920 pixels
Height : 1 080 pixels
Display aspect ratio : 16:9
Frame rate mode : Constant
Frame rate : 23.976 fps
Color space : YUV
Chroma subsampling : 4:2:0
Bit depth : 8 bits
Scan type : Progressive
Bits/(Pixel*Frame) : 0.119
Stream size : 4.89 GiB (85%)
Title : Письмо для Момо.(2011).BDRip.1080p.[envy]
Writing library : x264 core 148 r2597 e86f3a1
Encoding settings : cabac=1 / ref=4 / deblock=1:-1:-1 / analyse=0x3:0x133 / me=umh / subme=11 / psy=1 / psy_rd=1.00:0.00 / mixed_ref=1 / me_range=48 / chroma_me=1 / trellis=2 / 8x8dct=1 / cqm=0 / deadzone=21,11 / fast_pskip=0 / chroma_qp_offset=-2 / threads=12 / lookahead_threads=2 / sliced_threads=0 / nr=0 / decimate=1 / interlaced=0 / bluray_compat=0 / constrained_intra=0 / bframes=8 / b_pyramid=2 / b_adapt=2 / b_bias=0 / direct=3 / weightb=1 / open_gop=0 / weightp=2 / keyint=240 / keyint_min=23 / scenecut=40 / intra_refresh=0 / rc=2pass / mbtree=0 / bitrate=5936 / ratetol=2.0 / qcomp=0.60 / qpmin=0 / qpmax=69 / qpstep=4 / cplxblur=20.0 / qblur=0.5 / ip_ratio=1.40 / pb_ratio=1.30 / aq=2:1.00
Language : English
Default : Yes
Forced : No
Audio #1
ID : 2
Format : AC-3
Format/Info : Audio Coding 3
Mode extension : CM (complete main)
Format settings, Endianness : Big
Codec ID : A_AC3
Duration : 2h 0mn
Bit rate mode : Constant
Bit rate : 448 Kbps
Channel(s) : 6 channels
Channel positions : Front: L C R, Side: L R, LFE
Sampling rate : 48.0 KHz
Compression mode : Lossy
Stream size : 387 MiB (7%)
Title : Dub
Language : Russian
Default : Yes
Forced : No
Audio #2
ID : 3
Format : AC-3
Format/Info : Audio Coding 3
Mode extension : CM (complete main)
Format settings, Endianness : Big
Codec ID : A_AC3
Duration : 2h 0mn
Bit rate mode : Constant
Bit rate : 448 Kbps
Channel(s) : 6 channels
Channel positions : Front: L C R, Side: L R, LFE
Sampling rate : 48.0 KHz
Compression mode : Lossy
Stream size : 387 MiB (7%)
Title : Jpn
Language : Japanese
Default : No
Forced : No
Text #1
ID : 4
Format : UTF-8
Codec ID : S_TEXT/UTF8
Codec ID/Info : UTF-8 Plain Text
Title : Rus forced
Language : Russian
Default : Yes
Forced : Yes
Text #2
ID : 5
Format : UTF-8
Codec ID : S_TEXT/UTF8
Codec ID/Info : UTF-8 Plain Text
Title : Rus full
Language : Russian
Default : No
Forced : No
Text #3
ID : 6
Format : UTF-8
Codec ID : S_TEXT/UTF8
Codec ID/Info : UTF-8 Plain Text
Title : Eng full
Language : English
Default : No
Forced : No
Menu
00:00:00.000 : :Chapter 01
00:04:47.578 : :Chapter 02
00:09:05.670 : :Chapter 03
00:17:43.020 : :Chapter 04
00:28:16.152 : :Chapter 05
00:42:33.801 : :Chapter 06
00:52:44.703 : :Chapter 07
01:03:07.325 : :Chapter 08
01:12:23.297 : :Chapter 09
01:20:12.307 : :Chapter 10
01:33:53.294 : :Chapter 11
01:42:46.535 : :Chapter 12
01:47:30.861 : :Chapter 13
01:54:23.773 : :Chapter 14
01:56:13.967 : :Chapter 15
02:00:21.672 : :Chapter 16


#77



   Похожие торренты   Торрент   Размер 
В этой теме нет новых непрочитанных сообщений. Письмо для Момо / A Letter to Momo / Momo e no Tegami (2011) Blu-Ray Remux (1080p) от HDClub

3 | 15

35.2 ГБ

В этой теме нет новых непрочитанных сообщений. Письмо для Момо / Momo e no tegami (2011) BDRip 1080p

9 | 1

14.6 ГБ

В этой теме нет новых непрочитанных сообщений. Письмо для Момо / Momo e no tegami (2011) BDRip 720p

76 | 7

2.91 ГБ

В этой теме нет новых непрочитанных сообщений. Письмо для Момо / Momo e no Tegami (2011) BDRip-AVC | iPad | P

483 | 25

2.12 ГБ

В этой теме нет новых непрочитанных сообщений. Письмо для Момо / Momo e no tegami (2011) BDRip 720p

27 | 3

2.91 ГБ

В этой теме нет новых непрочитанных сообщений. Духовный меч Момо / Momo Kyun Sword [TV] [01-09 из 12] (2014) HDTVRip 720p | P

7 | 7

4.37 ГБ

В этой теме нет новых непрочитанных сообщений. Духовный меч Момо / Momo Kyun Sword [TV] [01-02 из 12] (2014) HDTVRip 720p | P

37 | 21

1.08 ГБ




Вы не можете начинать темы
Вы не можете отвечать на сообщения
Вы не можете редактировать свои сообщения
Вы не можете удалять свои сообщения
Вы не можете добавлять вложения

Перейти:  
Для Мосгорсуда, Роскомнадзора и рекламодателей: mosgorsud-torrent[собачка]yandex.ru
 Вход
ppkBB3cker v.2 © 2008-2014 @ PPK
[ Time : 0.057s | 15 Queries | GZIP : On ]

Торрент трекер RUTOR.IN, Не можете зайти на rutor.org? Какой новый адрес рутор? Какое зеркало рутор? Не работает rutor.org и зеркала? Тогда наш торрент специально для вас. Rutor.in неофициальное зеркало rutor. В случае если у Вас заблокирован rutor или вдруг Вы не можете на него зайти, то Вы без труда сможете скачать бесплатно и без рекламы последние новинки кино, игр, сериалов и прочего у нас, на Rutor.in. Не нужно использовать прокси, чтобы зайти на рутор, достаточно воспользоваться нашим ресурсом. Все новые фильмы, игры, сериалы, книги и музыка за 2013 и 2014 годы через торрент бесплатно. Скачивайте фильмы в хорошем качестве, игры для пк, xbox, playstation без регистрации. У нас вы найдете новые Зарубежные сериалы и Русские сериалы 2013, 2014, 2015 годов. Оставайтесь с нами, качайте любимые фильмы, игры, сериалы, книги и музыку.