img image001 image001 image001 image001 image001 image001 image001 image001 image001 image001 image001 image001 image001 image001 image001

Planets Sun Sun Sun
Статистика раздачи
Автор: Nickolas3434 | Размер: 24.79 ГБ | Добавлен: 09 сен 2015
Раздают: 59    Качают: 22
Скачать торрент
Скачать торрент
Описание торрента

СообщениеДобавлено: 09 сен 2015 

Путь аса / Dia no Ace / Daiya no A / Ace of Diamond / Diamond no Ace

Перевод: Любительский (одноголосый) Ancord
Субтитры: отсутствуют
Хардсаб: отсутствует
Формат: WEBRip, mp4, H.264, AAC
Страна: Япония
Режиссер: Масухара Мицуюки
Жанр: спорт, комедия, драма
Продолжительность: ТВ (75 эп.), 25 мин.
Год выпуска: 2013
Перевод на русский: Pat-Rica, Тупой Ёж
Озвучка: Ancord
Описание: Савамура Эйдзюн, питчер, честный и простодушный парень с обострённым чувством справедливости, которого друзья ласково называют Эй-тян, живёт в маленьком провинциальном городке. Он собрал в школе бейсбольную команду и устремился со своими друзьями на путь к Кошиену. Однако мечтам молодых людей не суждено было сбыться, и в последнем классе средней школы они проиграли, так и не попав на национальный чемпионат. Однажды в доме парня появляется странная женщина, которая называет себя помощником тренера и предлагает Эйдзюну продолжить свою мечту в одной из лучших бейсбольных школ Токио.
Качество: WEBRip 720p
Видео: 1280x720 (16:9), 23,976 fps, AVC (x264), High@L4.0, ~1776 Kbps avg, 0.080 bit/pixel, 8 bit
Аудио: 48.0KHz, AAC, 2ch, ~ 192Kbps avg
01 - The One Pitch
02 - Partner
03 - Not Qualified to Be a Pitcher?
04 - Are You Like Me?
05 - A Clash
06 - Head to Head!
07 - The Two Batteries
08 - The Truth About Chris
09 - With Chagrin in His Heart
10 - Hone Your Moving Fastball
11 - Chris to the Field!
12 - Target
13 - You`re in the First-Strring
14 - Training Camp Begins!
15 - Lead with Your Plays!
16 - Challenge
17 - Games Are Fun
18 - I Hate It, But...
19 - Fate
20 - Emergency
21 - To the Dream Stage
22 - Calling for Attention
23 - Official Game Debut
24 - Clockwork
25 - Anti-Furuya Strategy
26 - Miracle Akikawa
27 - I`m Not Running
28 - Path, Eijun Sawamura to the Scorching Mound
29 - Neck and Neck
30 - Winner and Loser
31 - Dark Horse
32 - Summers
33 - Money Tree
34 - Reliable Teammates
35 - Potential
36 - The Ace Walks On
37 - Burst!
38 - Roles
39 - Expectations of an Ace
40 - The Winning Shot
41 - It`s the Semifinal
42 - The Giant Looks Down
43 - Revenge
44 - Best Pitch
45 - Fantasy
46 - Pitching of Despair
47 - That Summer
48 - At the Dorm...
49 - A Nostalgic Face
50 - Footsteps to Tomorrow
51 - The Battle Begins!
52 - I Don`t Want to Lose
53 - Change Gears
54 - Entrusted Faith and the Courage to Perform
55 - Strong Men
56 - Decision
57 - Reliable Underclassmen
58 - The Three-Hole
59 - Fearless
60 - Lonely Sun
61 - Determined
62 - Victory or Defeat
63 - Lingering Feelings
64 - Restart
65 - In the Sun
66 - Outsider
67 - The Kick
68 - The Ace Title
69 - Can`t Lose!
70 - Next Stage
71 - September Sky
72 - The Final Lesson
73 - Inheritance
74 - Guiding Light
75 - In Pursuit
Общее
Полное имя : C:[AniDub]_Ace_of_Diamond_[720p]_[Ancord][AniDub]_Ace_of_Diamond_-_01_[RUS_JAP]_[1280x720_h264]_[Ancord].mp4
Формат : MPEG-4
Профиль формата : 3GPP Media Release 6 Basic
Идентификатор кодека : 3gp6
Размер файла : 339 Мбайт
Продолжительность : 24 м.
Режим общего битрейта : Переменный
Общий поток : 1971 Кбит/сек
Дата кодирования : UTC 2015-08-17 18:13:48
Дата пометки : UTC 2015-08-17 18:13:48
Программа кодирования : Yamb 2.1.0.0 [http://yamb.unite-video.com]
Видео
Идентификатор : 1
Формат : AVC
Формат/Информация : Advanced Video Codec
Профиль формата : High@L4
Параметр CABAC формата : Да
Параметр ReFrames формата : 6 кадров
Идентификатор кодека : avc1
Идентификатор кодека/Информация : Advanced Video Coding
Продолжительность : 24 м.
Битрейт : 1776 Кбит/сек
Максимальный битрейт : 7590 Кбит/сек
Ширина : 1280 пикселей
Высота : 720 пикселей
Соотношение сторон : 16:9
Режим частоты кадров : Постоянный
Частота кадров : 23,976 кадра/сек
Цветовое пространство : YUV
Субдискретизация насыщенности : 4:2:0
Битовая глубина : 8 бит
Тип развёртки : Прогрессивная
Бит/(Пиксели*Кадры) : 0.080
Размер потока : 306 Мбайт (90%)
Библиотека кодирования : x264 core 120 r2120 0c7dab9
Настройки программы : cabac=1 / ref=6 / deblock=1:1:1 / analyse=0x3:0x113 / me=umh / subme=8 / psy=1 / psy_rd=0.40:0.00 / mixed_ref=1 / me_range=16 / chroma_me=1 / trellis=1 / 8x8dct=1 / cqm=0 / deadzone=21,11 / fast_pskip=1 / chroma_qp_offset=-2 / threads=4 / sliced_threads=0 / nr=0 / decimate=1 / interlaced=0 / bluray_compat=0 / constrained_intra=0 / bframes=3 / b_pyramid=2 / b_adapt=2 / b_bias=0 / direct=3 / weightb=1 / open_gop=0 / weightp=2 / keyint=250 / keyint_min=23 / scenecut=40 / intra_refresh=0 / rc_lookahead=50 / rc=2pass / mbtree=1 / bitrate=1776 / ratetol=1.0 / qcomp=0.60 / qpmin=0 / qpmax=69 / qpstep=4 / cplxblur=20.0 / qblur=0.5 / vbv_maxrate=3552 / vbv_bufsize=8880 / nal_hrd=none / ip_ratio=1.40 / aq=1:0.60
Дата кодирования : UTC 2013-10-06 16:02:54
Дата пометки : UTC 2015-08-17 18:13:52
Аудио
Идентификатор : 2
Формат : AAC
Формат/Информация : Advanced Audio Codec
Профиль формата : LC
Идентификатор кодека : 40
Продолжительность : 24 м.
Вид битрейта : Переменный
Битрейт : 192 Кбит/сек
Максимальный битрейт : 196 Кбит/сек
Каналы : channel0
Channel(s)_Original : 2 канала
Расположение каналов : Front: L R
Частота : 48,0 КГц
Метод сжатия : С потерями
Размер потока : 33,1 Мбайт (10%)
Язык : English
Дата кодирования : UTC 2013-10-07 16:06:53
Дата пометки : UTC 2015-08-17 18:13:52










   Похожие торренты   Торрент   Размер 
В этой теме нет новых непрочитанных сообщений. Путь Любви / Koitabi - True Tours Nanto [01-06 из 06] (2013) WEBRip 720p | KANSAI, AniDub, SHIZA Project

16 | 13

457.83 МБ

В этой теме нет новых непрочитанных сообщений. Рёв!! / Bakuon!! [S01 + OVA] (2016) WEBRip 720p | AniDub

29 | 7

4.53 ГБ

В этой теме нет новых непрочитанных сообщений. Сотня / Hundred [S01] (2016) WEBRip 720p | AniDub

221 | 24

4.23 ГБ

В этой теме нет новых непрочитанных сообщений. Черные метки / Schwarzesmarken [01-11 из 12] (2016) WEBRip 720p | AniDub

36 | 18

3.81 ГБ

В этой теме нет новых непрочитанных сообщений. Черные метки / Schwarzesmarken [01-08 из 12] (2016) WEBRip 720p | AniDub

11 | 3

2.76 ГБ

В этой теме нет новых непрочитанных сообщений. Черные метки / Schwarzesmarken [01 из 12] (2016) WEBRip 720p | AniDub

183 | 8

357.98 МБ

В этой теме нет новых непрочитанных сообщений. Черные метки / Schwarzesmarken [01-03 из 12] (2016) WEBRip 720p | AniDub

17 | 8

1.05 ГБ




Вы не можете начинать темы
Вы не можете отвечать на сообщения
Вы не можете редактировать свои сообщения
Вы не можете удалять свои сообщения
Вы не можете добавлять вложения

Перейти:  
Для Мосгорсуда, Роскомнадзора и рекламодателей: mosgorsud-torrent[собачка]yandex.ru
 Вход
ppkBB3cker v.2 © 2008-2014 @ PPK
[ Time : 0.308s | 14 Queries | GZIP : Off ]

Торрент трекер RUTOR.IN, Не можете зайти на rutor.org? Какой новый адрес рутор? Какое зеркало рутор? Не работает rutor.org и зеркала? Тогда наш торрент специально для вас. Rutor.in неофициальное зеркало rutor. В случае если у Вас заблокирован rutor или вдруг Вы не можете на него зайти, то Вы без труда сможете скачать бесплатно и без рекламы последние новинки кино, игр, сериалов и прочего у нас, на Rutor.in. Не нужно использовать прокси, чтобы зайти на рутор, достаточно воспользоваться нашим ресурсом. Все новые фильмы, игры, сериалы, книги и музыка за 2013 и 2014 годы через торрент бесплатно. Скачивайте фильмы в хорошем качестве, игры для пк, xbox, playstation без регистрации. У нас вы найдете новые Зарубежные сериалы и Русские сериалы 2013, 2014, 2015 годов. Оставайтесь с нами, качайте любимые фильмы, игры, сериалы, книги и музыку.