img image001 image001 image001 image001 image001 image001 image001 image001 image001 image001 image001 image001 image001 image001 image001

Planets Sun Sun Sun
Статистика раздачи
Автор: Nickolas3434 | Размер: 831.82 МБ | Добавлен: 10 сен 2015
Раздают: 21    Качают: 5
Скачать торрент
Скачать торрент
Описание торрента

СообщениеДобавлено: 10 сен 2015 


Информация о фильме
Название: Люпен Третий: Приключения в Италии / Люпен III: Истории синего пиджака
Оригинальное название: Lupin III: Italiano (Blue Jacket) / ルパン三世
Страна: Япония
Год выхода: 2015
Жанр: приключения
Режиссер: Томонага Кадзухидэ / Tomonaga Kazuhide / 友永和秀
Автор оригинала: Манки Панч / Monkey Punch / モンキー・パンチ
О фильме: И снова нашему гениальному вору Люпену III, использующему в своем непростом ремесле различные научные изобретения, не сидится на месте! А кто же ему поможет в его новых испытаниях? Разумеется, верные друзья — обладающий феноменальной точностью стрелок Дзигэн и отчаянный боец ближнего боя, самурай Гоэмон. Вместе со своими коллегами Люпен III смог провернуть множество афер, чем нажил себе врага в лице инспектора Интерпола Дзэнигату, который посвятил свою жизнь поимке именитого мошенника. Очередное противостояние Люпена и Дзэнигаты, а также остальных многочисленных врагов ворюги №1, мы и увидим в этом сериале.
Студия:
Продолжительность: ТВ (24 эп.)
Перевод: Любительский (одноголосый)
Озвучка: Тимиркан Сиюхов (loster01)
Субтитры: отсутствуют
Полухардсаб: логотип
Перевод на русский: перевод: Алекс Миф; редактор: Semyon44 (Семён44)
Файл
Качество: HDTVRip [loster01]
Формат: MP4
Видео: 1280 x 720 (16:9) at 23.976 fps, AVC (x264), High@L3.1, 2500 Kbps avg, 0.113 bit/pixel, 8 bit
Аудио: 48.0 kHz, AAC, 2 ch, 192 kbps avg
Релиз от:
Общее
Полное имя : Lupin.III.S04.720p.HDTVRip.le-production / Lupin.III.S04E01.720p.HDTVRip.le-production.mp4
Формат : MPEG-4
Профиль формата : Base Media
Идентификатор кодека : isom
Размер файла : 437 Мбайт
Продолжительность : 22 м.
Общий поток : 2695 Кбит/сек
Дата кодирования : UTC 2015-09-03 07:57:33
Дата пометки : UTC 2015-09-03 07:57:33
Программа кодирования : Yamb 2.1.0.0 [http://yamb.unite-video.com]
Правообладатель : le-production
Видео
Идентификатор : 1
Формат : AVC
Формат/Информация : Advanced Video Codec
Профиль формата : High@L3.1
Параметр CABAC формата : Да
Параметр ReFrames формата : 4 кадры
Идентификатор кодека : avc1
Идентификатор кодека/Информация : Advanced Video Coding
Продолжительность : 22 м.
Вид битрейта : Переменный
Битрейт : 2500 Кбит/сек
Максимальный битрейт : 9609 Кбит/сек
Ширина : 1280 пикс.
Высота : 720 пикс.
Соотношение сторон : 16:9
Режим частоты кадров : Постоянный
Частота кадров : 23,976 кадр/сек
Цветовое пространство : YUV
Подвыборка цветности : 4:2:0
Битовая глубина : 8 бит
Тип развёртки : Прогрессивная
Бит/(Пиксели*Кадры) : 0.113
Размер потока : 406 Мбайт (93%)
Библиотека кодирования : x264 core 146 r2538 121396c
Настройки программы : cabac=1 / ref=1 / deblock=1:1:1 / analyse=0x3:0x3 / me=dia / subme=1 / psy=1 / psy_rd=0.40:0.00 / mixed_ref=0 / me_range=16 / chroma_me=1 / trellis=0 / 8x8dct=1 / cqm=0 / deadzone=21,11 / fast_pskip=1 / chroma_qp_offset=0 / threads=12 / lookahead_threads=2 / sliced_threads=0 / nr=0 / decimate=1 / interlaced=0 / bluray_compat=0 / constrained_intra=0 / bframes=5 / b_pyramid=2 / b_adapt=1 / b_bias=0 / direct=3 / weightb=1 / open_gop=0 / weightp=1 / keyint=250 / keyint_min=23 / scenecut=40 / intra_refresh=0 / rc=2pass / mbtree=0 / bitrate=2500 / ratetol=1.0 / qcomp=0.60 / qpmin=0 / qpmax=69 / qpstep=4 / cplxblur=20.0 / qblur=0.5 / ip_ratio=1.40 / pb_ratio=1.30 / aq=1:0.60
Язык : Russian
Дата кодирования : UTC 2015-09-04 07:57:08
Дата пометки : UTC 2015-09-03 07:57:38
Аудио
Идентификатор : 2
Формат : AAC
Формат/Информация : Advanced Audio Codec
Профиль формата : LC
Идентификатор кодека : 40
Продолжительность : 22 м.
Вид битрейта : Переменный
Битрейт : 192 Кбит/сек
Максимальный битрейт : 200 Кбит/сек
Канал(ы) : 2 канала(ов)
Расположение каналов : Front: L R
Частота : 48,0 КГц
Метод сжатия : С потерями
Размер потока : 31,2 Мбайт (7%)
Язык : Russian
Дата кодирования : UTC 2015-09-03 07:57:37
Дата пометки : UTC 2015-09-03 07:57:38
1. Episode 1
2. Episode 2
3. Episode 3
4. Episode 4
5. Episode 5
6. Episode 6
7. Episode 7
8. Episode 8






   Похожие торренты   Торрент   Размер 
В этой теме нет новых непрочитанных сообщений. Люпен Третий: Приключения в Италии / Lupin III: Italiano (Blue Jacket) [TV-4] [01-05 из 26] (2015) HDTVRip 720p | LE-Production

28 | 1

1.36 ГБ

В этой теме нет новых непрочитанных сообщений. Люпен Третий: Приключения в Италии / Lupin III: Italiano (Blue Jacket) [TV-4] [01 из 24] (2015) HDTVRip 720p | LE-Production

20 | 22

437.39 МБ

В этой теме нет новых непрочитанных сообщений. Люпен Третий: Приключения в Италии / Lupin Sansei (2015) / Lupin the 3rd Part 4 [TV] [01-08] (2015) HDTVRip 720 | Persona99

15 | 5

2.92 ГБ

В этой теме нет новых непрочитанных сообщений. Люпен Третий: Приключения в Италии / Lupin the 3rd Part 4 [TV] [01-11] (2015) HDTVRip 720 | Persona99

5 | 0

3.93 ГБ

В этой теме нет новых непрочитанных сообщений. Люпен Третий: Приключения в Италии / Lupin the 3rd Part 4 [TV] [01-13] (2015) HDTVRip 720 | Persona99

8 | 5

4.63 ГБ

В этой теме нет новых непрочитанных сообщений. Люпен Третий: Могила Дзигэна Дайскэ / Lupin the IIIrd: Jigen Daisuke no Bohyou [Movie] [01-02 из 02] (2014) BDRip 720p | P1

48 | 10

1.58 ГБ

В этой теме нет новых непрочитанных сообщений. Люпен III: Принцесса морского бриза / Lupin III: Princess of the Breeze (2013) HDTVRip | Persona99

33 | 3

871.46 МБ




Вы не можете начинать темы
Вы не можете отвечать на сообщения
Вы не можете редактировать свои сообщения
Вы не можете удалять свои сообщения
Вы не можете добавлять вложения

Перейти:  
Для Мосгорсуда, Роскомнадзора и рекламодателей: mosgorsud-torrent[собачка]yandex.ru
 Вход
ppkBB3cker v.2 © 2008-2014 @ PPK
[ Time : 0.859s | 14 Queries | GZIP : Off ]

Торрент трекер RUTOR.IN, Не можете зайти на rutor.org? Какой новый адрес рутор? Какое зеркало рутор? Не работает rutor.org и зеркала? Тогда наш торрент специально для вас. Rutor.in неофициальное зеркало rutor. В случае если у Вас заблокирован rutor или вдруг Вы не можете на него зайти, то Вы без труда сможете скачать бесплатно и без рекламы последние новинки кино, игр, сериалов и прочего у нас, на Rutor.in. Не нужно использовать прокси, чтобы зайти на рутор, достаточно воспользоваться нашим ресурсом. Все новые фильмы, игры, сериалы, книги и музыка за 2013 и 2014 годы через торрент бесплатно. Скачивайте фильмы в хорошем качестве, игры для пк, xbox, playstation без регистрации. У нас вы найдете новые Зарубежные сериалы и Русские сериалы 2013, 2014, 2015 годов. Оставайтесь с нами, качайте любимые фильмы, игры, сериалы, книги и музыку.