img image001 image001 image001 image001 image001 image001 image001 image001 image001 image001 image001 image001 image001 image001 image001

Planets Sun Sun Sun
Статистика раздачи
Автор: Nickolas3434 | Размер: 488.03 МБ | Добавлен: 14 сен 2015
Раздают: 11    Качают: 2
Скачать торрент
Скачать торрент
Описание торрента

СообщениеДобавлено: 14 сен 2015 


Информация о фильме
Название: Нинку
Оригинальное название: Ninkuu: Knife no Bohyou
Страна: Япония
Год выпуска: 1994 г.
Жанр: приключения, комедия
Тип: OVA, 1 эп.
Продолжительность: 35 мин.
Режиссер: Кирияма Кодзи
Студия:

Описание: Жил-был парень, похожий на полного гоблина с синдромом дауна (но это только с виду), и существовали такие, как нинку (очень похоже на наруто, те же техники), которых боялись обычные люди, и в один непрекрасный у героя украли его мать. Он подрос и отправился на ее поиски и заодно показать, что не все нинку плохие.

Перевод: Volgannos
Редактор: Daria_Em
Оформление: Huck'MasterOK
Релиз от:

Качество: VHSRip [EviL_Orphan_Soldado]
Тип релиза: Без хардсаба
Формат видео: MKV
Совместимость с бытовыми плеерами: Нет
Видео: x264 (8 bit), 640x480, 1500 kbps, 29.970 fps
Аудио: [int] MP3, 112 kbps, 48 KHz, 1 ch
Субтитры: ASS, Полные
General
Unique ID : 201280069517056323851498523496251187532 (0x976D219D798AA4ABB31019F6D788E14C)
Complete name : D:CactusTeam[CactusTeam]_Ninku_OVA_(VHS_x264_480p_MP3)[CactusTeam]_Ninku_OVA_(VHS_x264_480p_MP3).mkv
Format : Matroska
Format version : Version 4 / Version 2
File size : 488 MiB
Duration : 42mn 42s
Overall bit rate : 1 598 Kbps
Encoded date : UTC 2015-09-11 07:29:19
Writing application : mkvmerge v7.9.0 ('Birds') 32bit
Writing library : libebml v1.3.1 + libmatroska v1.4.2
DURATION : 00:41:30.000000000
NUMBER_OF_FRAMES : 521
NUMBER_OF_BYTES : 38052
_STATISTICS_WRITING_APP : mkvmerge v7.9.0 ('Birds') 32bit
_STATISTICS_WRITING_DATE_UT : 2015-09-11 07:29:19
_STATISTICS_TAGS : BPS DURATION NUMBER_OF_FRAMES NUMBER_OF_BYTES
Video
ID : 1
Format : AVC
Format/Info : Advanced Video Codec
Format profile : High@L3
Format settings, CABAC : Yes
Format settings, ReFrames : 4 frames
Codec ID : V_MPEG4/ISO/AVC
Duration : 42mn 42s
Bit rate : 1 500 Kbps
Width : 640 pixels
Height : 480 pixels
Display aspect ratio : 4:3
Frame rate mode : Constant
Frame rate : 29.970 fps
Color space : YUV
Chroma subsampling : 4:2:0
Bit depth : 8 bits
Scan type : Progressive
Bits/(Pixel*Frame) : 0.163
Stream size : 444 MiB (91%)
Writing library : x264 core 102 r1666bm d058f37
Encoding settings : cabac=1 / ref=3 / deblock=1:0:0 / analyse=0x3:0x113 / me=hex / subme=7 / psy=1 / psy_rd=1.00:0.00 / mixed_ref=1 / me_range=16 / chroma_me=1 / trellis=1 / 8x8dct=1 / cqm=0 / deadzone=21,11 / fast_pskip=1 / chroma_qp_offset=-2 / threads=3 / sliced_threads=0 / nr=0 / decimate=1 / interlaced=0 / constrained_intra=0 / bframes=3 / b_pyramid=2 / b_adapt=1 / b_bias=0 / direct=1 / weightb=1 / open_gop=0 / weightp=2 / keyint=250 / keyint_min=25 / scenecut=40 / intra_refresh=0 / rc_lookahead=40 / rc=abr / mbtree=1 / bitrate=1500 / ratetol=1.0 / qcomp=0.60 / qpmin=10 / qpmax=51 / qpstep=4 / ip_ratio=1.40 / aq=1:1.00
Language : Japanese
Default : Yes
Forced : No
Audio
ID : 2
Format : MPEG Audio
Format version : Version 1
Format profile : Layer 3
Codec ID : A_MPEG/L3
Codec ID/Hint : MP3
Duration : 42mn 42s
Bit rate mode : Constant
Bit rate : 112 Kbps
Channel(s) : 1 channel
Sampling rate : 48.0 KHz
Compression mode : Lossy
Stream size : 34.2 MiB (7%)
Title : Original
Writing library : LAME3.98r
Encoding settings : -m m -V 4 -q 3 -lowpass 20.5 -b 112
Language : Japanese
Default : Yes
Forced : No
Text
ID : 3
Format : ASS
Codec ID : S_TEXT/ASS
Codec ID/Info : Advanced Sub Station Alpha
Compression mode : Lossless
Title : CactusTeam
Language : Russian
Default : Yes
Forced : No




   Похожие торренты   Торрент   Размер 
В этой теме нет новых непрочитанных сообщений. АМБА (1994-1995) VHSRip

4 | 2

289.38 МБ

В этой теме нет новых непрочитанных сообщений. Кошечка (1994) VHSRip от pro100shara

3 | 9

1.36 ГБ

В этой теме нет новых непрочитанных сообщений. Курочка Ряба (1994) VHSRip

196 | 6

1.37 ГБ

В этой теме нет новых непрочитанных сообщений. Афганец-2 (1994) VHSRip от Русфильм

190 | 22

1.65 ГБ

В этой теме нет новых непрочитанных сообщений. АМБА 1-2 (1994-1995) VHSRip

74 | 12

289.44 МБ

В этой теме нет новых непрочитанных сообщений. Великая криминальная революция (1994) VHSRip

43 | 4

697.25 МБ

В этой теме нет новых непрочитанных сообщений. Самолет летит в Россию (1994) VHSRip

4 | 2

1.36 ГБ




Вы не можете начинать темы
Вы не можете отвечать на сообщения
Вы не можете редактировать свои сообщения
Вы не можете удалять свои сообщения
Вы не можете добавлять вложения

Перейти:  
Для Мосгорсуда, Роскомнадзора и рекламодателей: mosgorsud-torrent[собачка]yandex.ru
 Вход
ppkBB3cker v.2 © 2008-2014 @ PPK
[ Time : 0.664s | 15 Queries | GZIP : Off ]

Торрент трекер RUTOR.IN, Не можете зайти на rutor.org? Какой новый адрес рутор? Какое зеркало рутор? Не работает rutor.org и зеркала? Тогда наш торрент специально для вас. Rutor.in неофициальное зеркало rutor. В случае если у Вас заблокирован rutor или вдруг Вы не можете на него зайти, то Вы без труда сможете скачать бесплатно и без рекламы последние новинки кино, игр, сериалов и прочего у нас, на Rutor.in. Не нужно использовать прокси, чтобы зайти на рутор, достаточно воспользоваться нашим ресурсом. Все новые фильмы, игры, сериалы, книги и музыка за 2013 и 2014 годы через торрент бесплатно. Скачивайте фильмы в хорошем качестве, игры для пк, xbox, playstation без регистрации. У нас вы найдете новые Зарубежные сериалы и Русские сериалы 2013, 2014, 2015 годов. Оставайтесь с нами, качайте любимые фильмы, игры, сериалы, книги и музыку.
cron